<?xml version="1.0" standalone="no"?>
<!DOCTYPE svg PUBLIC "-//W3C//DTD SVG 1.1//EN" "http://www.w3.org/Graphics/SVG/1.1/DTD/svg11.dtd">
<svg xmlns="http://www.w3.org/2000/svg">
    <metadata>Generated by IcoMoon</metadata>
    <defs>
        <font id="icon-font" horiz-adv-x="1024">
            <font-face units-per-em="1024" ascent="960" descent="-64" />
            <missing-glyph horiz-adv-x="1024" />
            <glyph unicode="&#x20;" horiz-adv-x="512" d="" />
            <glyph unicode="&#xe900;" glyph-name="innovative-tools"
                d="M941.6 440.8l-36.8 32.8c-6.4 7.2-11.2 20-11.2 28 0 8.8 4.8 21.6 11.2 28l36.8 32.8c0.8 0 0.8 0.8 1.6 0.8 28 28 41.6 74.4 22.4 112.8-16.8 34.4-52 57.6-92.8 57.6-0.8 0-1.6 0-2.4 0l-48.8-4c-12.8 0-24 5.6-30.4 11.2-8.8 12.8-12.8 22.4-13.6 32.8l4 48c6.4 46.4-27.2 80.8-57.6 96-0.8 0-0.8 0.8-1.6 0.8-41.6 18.4-83.2 5.6-111.2-22.4-0.8-0.8-0.8-0.8-0.8-1.6l-32.8-36.8c-7.2-7.2-16.8-11.2-28-11.2-8.8 0-21.6 4.8-28 11.2l-33.6 37.6c0 0-0.8 0.8-0.8 0.8-28 28-74.4 41.6-112.8 22.4-34.4-16.8-57.6-52-57.6-92.8 0-0.8 0-1.6 0-2.4l4-48.8c0-12.8-5.6-24-11.2-30.4-12.8-8.8-22.4-12.8-32.8-13.6l-48 4c-46.4 6.4-80.8-27.2-96-57.6 0-0.8-0.8-0.8-0.8-1.6-17.6-41.6-4.8-83.2 23.2-111.2 0.8-0.8 0.8-0.8 1.6-0.8l36.8-32.8c6.4-7.2 11.2-20 11.2-28 0-8.8-4.8-21.6-11.2-28l-36.8-32.8c-12-11.2-13.6-29.6-2.4-41.6s29.6-13.6 41.6-2.4l37.6 32.8c0.8 0 0.8 0.8 1.6 0.8 18.4 18.4 29.6 46.4 29.6 70.4s-11.2 52.8-29.6 70.4c-0.8 0.8-0.8 0.8-1.6 0.8l-36.8 32.8c-12.8 12.8-16.8 28.8-10.4 44.8 9.6 18.4 24 26.4 35.2 24.8 0.8 0 0.8 0 1.6 0l49.6-4c0.8 0 1.6 0 2.4 0 29.6 0 52.8 12 72 26.4 0.8 0.8 2.4 1.6 3.2 2.4 18.4 18.4 29.6 47.2 29.6 75.2 0 0.8 0 1.6 0 2.4l-4 48c0 16.8 10.4 31.2 24.8 39.2 11.2 5.6 30.4 3.2 44-10.4l32.8-36.8c0-0.8 0.8-0.8 0.8-1.6 18.4-18.4 46.4-29.6 70.4-29.6 29.6 0 53.6 12 70.4 29.6 0.8 0.8 0.8 0.8 0.8 1.6l32.8 36.8c12.8 12.8 28.8 16.8 44.8 10.4 18.4-9.6 26.4-24 24.8-35.2 0-0.8 0-0.8 0-1.6l-4-49.6c0-0.8 0-1.6 0-2.4 0-29.6 12-52.8 26.4-72 0.8-0.8 1.6-2.4 2.4-3.2 18.4-18.4 47.2-29.6 75.2-29.6 0.8 0 1.6 0 2.4 0l48 4c16.8 0 31.2-10.4 39.2-24.8 5.6-11.2 3.2-30.4-10.4-44l-36.8-32.8c-0.8 0-0.8-0.8-1.6-0.8-18.4-18.4-29.6-46.4-29.6-70.4s11.2-52.8 29.6-70.4c0.8-0.8 0.8-0.8 1.6-0.8l36.8-32.8c12.8-12.8 16.8-28.8 10.4-44.8-9.6-18.4-24-26.4-35.2-24.8-0.8 0-0.8 0-1.6 0l-49.6 4c-0.8 0-1.6 0-2.4 0-29.6 0-52.8-12-72-26.4-0.8-0.8-2.4-1.6-3.2-2.4-18.4-18.4-29.6-47.2-29.6-75.2 0-0.8 0-1.6 0-2.4l4-48c0-16.8-10.4-31.2-24.8-39.2-11.2-5.6-30.4-3.2-44 10.4l-32.8 36.8c0 0.8-0.8 0.8-0.8 1.6-18.4 18.4-46.4 29.6-70.4 29.6-29.6 0-53.6-12-70.4-29.6-0.8-0.8-0.8-0.8-0.8-1.6l-32.8-37.6c-11.2-12-9.6-31.2 2.4-41.6 12-11.2 31.2-9.6 41.6 2.4l32.8 36.8c7.2 7.2 16.8 11.2 28 11.2 8.8 0 21.6-4.8 28-11.2l32.8-36.8c0-0.8 0.8-0.8 0.8-1.6 28-28 74.4-41.6 112.8-22.4 34.4 16.8 57.6 52 57.6 92.8 0 0.8 0 1.6 0 2.4l-4 48c0 12.8 5.6 24 11.2 30.4 12.8 8.8 22.4 12.8 32.8 13.6l48-4c46.4-6.4 80.8 27.2 96 57.6 0 0.8 0.8 0.8 0.8 1.6 17.6 41.6 4.8 83.2-23.2 111.2-0.8 0.8-1.6 1.6-2.4 1.6zM700 365.6c23.2 23.2 36 49.6 44 74.4 3.2 8.8 1.6 19.2-4 26.4-5.6 8-14.4 12-24 12h-133.6c-13.6 0-26.4 12.8-26.4 26.4s12.8 26.4 26.4 26.4h130.4c9.6 0 17.6 4 23.2 12 5.6 7.2 7.2 16.8 4.8 25.6-13.6 51.2-50.4 90.4-105.6 116-57.6 26.4-128 22.4-180.8-13.6-80-52-108.8-141.6-84.8-221.6l-295.2-294.4c-37.6-37.6-37.6-96.8 0-134.4s96.8-37.6 134.4 0l296 296c68-18.4 142.4-4 195.2 48.8zM476 370.4l-308-308c-14.4-14.4-36.8-14.4-51.2 0s-14.4 36.8 0 51.2l308.8 308.8c8.8 8.8 11.2 21.6 6.4 32.8-24 57.6-6.4 127.2 56 168v0c36 24 84 27.2 123.2 8.8 24-11.2 41.6-24.8 53.6-40h-82.4c-46.4 0-85.6-39.2-85.6-85.6s39.2-85.6 85.6-85.6h86.4c-3.2-4.8-7.2-8.8-10.4-12.8-39.2-39.2-97.6-49.6-151.2-30.4-11.2 4-23.2 0.8-31.2-7.2z" />
            <glyph unicode="&#xe901;" glyph-name="industries"
                d="M965.6 32h-12v660.8c0 17.6-7.2 34.4-20 46.4s-29.6 18.4-46.4 18.4h-59.2v33.6c0 11.2-4 20.8-12 28.8s-18.4 12-28.8 12h-80c-11.2 0-20.8-4-28.8-12s-12-18.4-12-28.8v-33.6h-58.4c-17.6 0-33.6-6.4-46.4-18.4s-20-28.8-20-46.4v-137.6h-69.6v24c0 11.2-9.6 20.8-20.8 20.8s-20.8-9.6-20.8-20.8v-24h-22.4c-8.8 0-19.2-1.6-28-5.6-7.2-3.2-21.6-12.8-21.6-31.2v-88c-0.8 0-2.4 0.8-3.2 0.8h-148.8v13.6c0 11.2-9.6 20.8-20.8 20.8s-20.8-9.6-20.8-20.8v-15.2c-8.8-1.6-17.6-4-24.8-8.8-10.4-7.2-20.8-19.2-20.8-36v-352.8h-54.4c-14.4 0-26.4-12-26.4-26.4s12-26.4 26.4-26.4h80.8c0 0 0 0 0 0s0 0 0 0h820c14.4 0 26.4 12 26.4 26.4s-12 26.4-26.4 26.4zM708.8 790.4h78.4v-32.8h-78.4v32.8zM598.4 700.8c2.4 2.4 6.4 4 10.4 4h279.2c4 0 7.2-1.6 10.4-4 2.4-2.4 3.2-5.6 3.2-8v-660.8h-256v224.8c0 29.6-22.4 53.6-51.2 57.6v216.8c0 0.8 0 0.8 0 1.6v160c0 3.2 1.6 6.4 4 8zM587.2 274.4c9.6 0 17.6-8 17.6-17.6v-224.8h-272v224.8c0 9.6 8 17.6 17.6 17.6h236.8zM552.8 503.2v-187.2h-140.8l-0.8 68.8c0 0 0 0 0 0v0 0 0c0 0 0 0 0 0v118.4h141.6zM168.8 376.8c0.8 0 3.2 2.4 3.2 8v-6.4c0.8 0 2.4 0 4 0h179.2c1.6 0 2.4 0 3.2 0v-61.6h-8.8c-32.8 0-59.2-26.4-59.2-59.2v-225.6h-118.4v345.6c-1.6 0-3.2-0.8-3.2-0.8zM411.2 384.8v0 0zM388.8 177.6h29.6c11.2 0 20.8 9.6 20.8 20.8s-9.6 20.8-20.8 20.8h-29.6c-11.2 0-20.8-9.6-20.8-20.8s8.8-20.8 20.8-20.8zM508.8 177.6h29.6c11.2 0 20.8 9.6 20.8 20.8s-9.6 20.8-20.8 20.8h-29.6c-11.2 0-20.8-9.6-20.8-20.8s9.6-20.8 20.8-20.8zM388.8 110.4h29.6c11.2 0 20.8 9.6 20.8 20.8s-9.6 20.8-20.8 20.8h-29.6c-11.2 0-20.8-9.6-20.8-20.8s8.8-20.8 20.8-20.8zM508.8 110.4h29.6c11.2 0 20.8 9.6 20.8 20.8s-9.6 20.8-20.8 20.8h-29.6c-11.2 0-20.8-9.6-20.8-20.8s9.6-20.8 20.8-20.8zM232 298.4h10.4c11.2 0 20.8 9.6 20.8 20.8s-9.6 20.8-20.8 20.8h-10.4c-11.2 0-20.8-9.6-20.8-20.8 0-12 9.6-20.8 20.8-20.8zM232 222.4h10.4c11.2 0 20.8 9.6 20.8 20.8s-9.6 20.8-20.8 20.8h-10.4c-11.2 0-20.8-9.6-20.8-20.8 0-12 9.6-20.8 20.8-20.8zM232 145.6h10.4c11.2 0 20.8 9.6 20.8 20.8s-9.6 20.8-20.8 20.8h-10.4c-11.2 0-20.8-9.6-20.8-20.8s9.6-20.8 20.8-20.8zM232 69.6h10.4c11.2 0 20.8 9.6 20.8 20.8s-9.6 20.8-20.8 20.8h-10.4c-11.2 0-20.8-9.6-20.8-20.8s9.6-20.8 20.8-20.8zM472.8 428h16c11.2 0 20.8 9.6 20.8 20.8s-9.6 20.8-20.8 20.8h-16c-11.2 0-20.8-9.6-20.8-20.8 0-12 9.6-20.8 20.8-20.8zM472.8 348.8h16c11.2 0 20.8 9.6 20.8 20.8s-9.6 20.8-20.8 20.8h-16c-11.2 0-20.8-9.6-20.8-20.8 0-12 9.6-20.8 20.8-20.8zM648 592.8h199.2c11.2 0 20.8 9.6 20.8 20.8s-9.6 20.8-20.8 20.8h-199.2c-11.2 0-20.8-9.6-20.8-20.8s9.6-20.8 20.8-20.8zM648 480.8h199.2c11.2 0 20.8 9.6 20.8 20.8s-9.6 20.8-20.8 20.8h-199.2c-11.2 0-20.8-9.6-20.8-20.8 0-12 9.6-20.8 20.8-20.8zM648 368.8h199.2c11.2 0 20.8 9.6 20.8 20.8s-9.6 20.8-20.8 20.8h-199.2c-11.2 0-20.8-9.6-20.8-20.8 0-12 9.6-20.8 20.8-20.8zM847.2 297.6h-144.8c-11.2 0-20.8-9.6-20.8-20.8s9.6-20.8 20.8-20.8h145.6c11.2 0 20.8 9.6 20.8 20.8-0.8 12-9.6 20.8-21.6 20.8zM847.2 185.6h-144.8c-11.2 0-20.8-9.6-20.8-20.8s9.6-20.8 20.8-20.8h145.6c11.2 0 20.8 9.6 20.8 20.8-0.8 11.2-9.6 20.8-21.6 20.8zM84.8 564.8c26.4 0 48 21.6 48 48 0 4.8-1.6 9.6-3.2 13.6l76 80c3.2-0.8 6.4-1.6 9.6-1.6 4 0 7.2 1.6 11.2 2.4l53.6-52.8c-1.6-4-2.4-8-2.4-12.8 0-26.4 21.6-48 48-48s48 21.6 48 48c0 4.8-1.6 8.8-2.4 12.8l157.6 180c3.2-0.8 5.6-1.6 8.8-1.6 26.4 0 48 21.6 48 48s-21.6 48-48 48c-26.4 0-48-21.6-48-48 0-5.6 1.6-10.4 3.2-14.4l-156.8-179.2c-3.2 0.8-6.4 2.4-10.4 2.4s-7.2-1.6-10.4-2.4l-54.4 53.6c0.8 4 2.4 8 2.4 12.8 0 26.4-21.6 48-48 48s-48-21.6-48-48c0-4.8 1.6-9.6 2.4-13.6l-76-80c-3.2 0.8-6.4 1.6-9.6 1.6-26.4 0-48-21.6-48-48 0.8-27.2 22.4-48.8 48.8-48.8z" />
            <glyph unicode="&#xe902;" glyph-name="travel-agents"
                d="M975.2 773.6c0 19.2-5.6 35.2-15.2 48s-21.6 20-32 24.8c-10.4 4.8-20.8 7.2-27.2 8-4 0.8-6.4 0.8-8.8 0.8-0.8 0-2.4 0-3.2 0h-0.8c0 0 0 0 0-32.8v33.6h-738.4c-19.2 0-35.2-4-48.8-12s-22.4-19.2-28-28.8c-5.6-10.4-8-20-9.6-27.2-0.8-3.2-0.8-6.4-1.6-8.8 0-0.8 0-2.4 0-3.2v-1.6c0 0 0 0 32.8 0h-32v-528.8c0-19.2 5.6-35.2 15.2-48s21.6-20 32-24.8c10.4-4.8 20.8-7.2 27.2-8 4-0.8 6.4-0.8 8.8-0.8 0.8 0 2.4 0 3.2 0h0.8c0 0 0 0 0 32.8v-32.8h279.2c-5.6-29.6-17.6-57.6-33.6-82.4h-45.6c-17.6 0-32.8-14.4-32.8-32.8 0-17.6 14.4-32.8 32.8-32.8h338.4c17.6 0 32.8 14.4 32.8 32.8 0 17.6-14.4 32.8-32.8 32.8h-45.6c-16.8 24.8-28 52.8-33.6 82.4h279.2c19.2 0 35.2 4 48.8 12s22.4 19.2 28 28.8c5.6 10.4 8 20 9.6 27.2 0.8 3.2 0.8 6.4 0.8 8.8 0 0.8 0 2.4 0 3.2v1.6c0 0 0 0-32.8 0h32.8v528zM127.2 773.6c0 0 0 0.8 0 2.4 0.8 2.4 1.6 4.8 2.4 7.2s2.4 4 4.8 4.8c2.4 1.6 6.4 3.2 15.2 3.2h737.6c0.8 0 1.6 0 3.2 0 3.2-0.8 7.2-1.6 10.4-3.2s5.6-3.2 6.4-4.8c0.8-0.8 2.4-3.2 2.4-9.6v-422.4h-782.4v422.4c0 0 0 0 0 0zM567.2 80.8h-97.6c12.8 26.4 20.8 53.6 25.6 82.4h47.2c4-28.8 12.8-56.8 24.8-82.4zM909.6 245.6c0 0 0-0.8 0-2.4-0.8-2.4-1.6-4.8-2.4-7.2s-2.4-4-4.8-4.8c-2.4-1.6-6.4-3.2-15.2-3.2h-737.6c-0.8 0-1.6 0-3.2 0-3.2 0.8-7.2 1.6-10.4 3.2s-5.6 3.2-6.4 4.8c-0.8 0.8-2.4 3.2-2.4 9.6v56h783.2l-0.8-56c0 0 0 0 0 0z" />
            <glyph unicode="&#xe903;" glyph-name="venues-types"
                d="M700.8 435.2c-12.8 5.6-27.2-0.8-32.8-12.8-40-92.8-104.8-189.6-161.6-264-28-36.8-53.6-68-72-90.4-4-4.8-8-9.6-11.2-12.8-8 8.8-17.6 20-28 33.6-28 34.4-65.6 82.4-104 136.8-37.6 54.4-75.2 115.2-102.4 175.2-28 60-44.8 116.8-44.8 164.8 0 154.4 125.6 280 280.8 280 56 0 108-16 151.2-44 12-7.2 27.2-4 34.4 7.2 7.2 12 4 27.2-7.2 34.4-52 33.6-113.6 52.8-179.2 52.8-182.4 0-329.6-148-330.4-330.4v0c0-58.4 20.8-123.2 50.4-186.4s68-126.4 107.2-182.4c38.4-56 77.6-104.8 106.4-140 14.4-17.6 26.4-32 35.2-41.6 4-4.8 7.2-8.8 9.6-11.2l2.4-3.2 0.8-0.8c4.8-5.6 11.2-8 18.4-8s13.6 3.2 18.4 8v0 0l2.4 2.4c1.6 1.6 3.2 4 6.4 7.2 5.6 6.4 12.8 15.2 22.4 26.4 19.2 22.4 44.8 54.4 73.6 92 56.8 75.2 125.6 176 167.2 274.4 5.6 12.8-0.8 27.2-13.6 32.8zM928 710.4c-3.2 8-8.8 15.2-16.8 20-7.2 4.8-15.2 7.2-24 7.2h-56l-30.4 71.2c-0.8 0.8-0.8 1.6-0.8 2.4-3.2 7.2-9.6 12.8-16.8 16.8-6.4 4.8-14.4 6.4-23.2 6.4-8 0-16-2.4-22.4-6.4-7.2-4-12.8-10.4-16.8-17.6 0-0.8-0.8-0.8-0.8-1.6l-31.2-72h-56c-8.8 0.8-16.8-2.4-24-6.4-7.2-4.8-12.8-12-16.8-20-3.2-8.8-4-17.6-2.4-26.4 2.4-8.8 7.2-16.8 13.6-22.4l48.8-44-27.2-64v-0.8c-3.2-8.8-4.8-18.4-2.4-27.2s7.2-16.8 14.4-23.2c7.2-6.4 15.2-10.4 24.8-11.2s18.4 1.6 26.4 6.4l72 40.8 72-40.8c8-4.8 17.6-6.4 26.4-5.6s17.6 4.8 24.8 10.4c7.2 6.4 12 14.4 14.4 23.2s0.8 18.4-2.4 27.2l-27.2 64 49.6 44c6.4 6.4 11.2 13.6 12.8 22.4 1.6 10.4 1.6 19.2-2.4 27.2zM820.8 644c-8-7.2-10.4-19.2-6.4-28.8l27.2-64-68.8 39.2c-7.2 4-16.8 4-24.8 0l-68.8-39.2 28 64c4 10.4 1.6 21.6-6.4 28.8l-48.8 43.2h54.4c10.4 0 19.2 6.4 23.2 15.2l31.2 72.8 31.2-72.8c4-9.6 12.8-15.2 23.2-15.2h54.4l-48.8-43.2zM283.2 571.2c0-78.4 63.2-141.6 141.6-141.6 77.6 0 140.8 63.2 140.8 141.6s-64 141.6-141.6 141.6c-77.6 0-140.8-63.2-140.8-141.6zM515.2 571.2c0-50.4-40.8-91.2-91.2-91.2s-91.2 40.8-91.2 91.2c0 50.4 40.8 91.2 91.2 91.2s91.2-40.8 91.2-91.2z" />
            <glyph unicode="&#xe904;" glyph-name="book-a-meeting"
                d="M720.8 826.4l-88-88v24c0 11.2-9.6 20.8-20.8 20.8s-20.8-9.6-20.8-20.8v-73.6c0-5.6 2.4-10.4 6.4-14.4s8.8-6.4 14.4-6.4h73.6c11.2 0 20.8 9.6 20.8 20.8s-9.6 20.8-20.8 20.8h-24l88 88c8 8 8 20.8 0 28.8-7.2 8-20.8 8-28.8 0zM356.8 709.6h-24c-11.2 0-20.8-9.6-20.8-20.8s9.6-20.8 20.8-20.8h73.6c5.6 0 10.4 2.4 14.4 6.4 2.4 2.4 4.8 5.6 5.6 9.6 0.8 1.6 0.8 4 0.8 5.6v73.6c0 11.2-9.6 20.8-20.8 20.8s-20.8-9.6-20.8-20.8v-24l-88 88c-8 8-20.8 8-28.8 0s-8-20.8 0-28.8l88-88.8zM509.6 677.6c-50.4 0-92-41.6-92-92 0-51.2 41.6-92 92-92s92 41.6 92 92c0 50.4-41.6 92-92 92zM509.6 544.8c-22.4 0-40.8 18.4-40.8 40.8s18.4 40.8 40.8 40.8c22.4 0 40.8-18.4 40.8-40.8s-18.4-40.8-40.8-40.8zM406.4 502.4v0h-73.6c-11.2 0-20.8-9.6-20.8-20.8s9.6-20.8 20.8-20.8h24l-88-88c-8-8-8-20.8 0-28.8s20.8-8 28.8 0l88 88v-24c0-11.2 9.6-20.8 20.8-20.8s20.8 9.6 20.8 20.8v73.6c0 5.6-1.6 11.2-6.4 15.2-4 4-8.8 5.6-14.4 5.6zM662.4 461.6h24c11.2 0 20.8 9.6 20.8 20.8s-9.6 20.8-20.8 20.8h-73.6c-0.8 0-0.8 0-1.6 0-4.8-0.8-9.6-2.4-12.8-5.6-4-4-5.6-8.8-6.4-13.6 0 0 0-0.8 0-0.8v-75.2c0-11.2 9.6-20.8 20.8-20.8s20.8 9.6 20.8 20.8v24l88-88c8-8 20.8-8 28.8 0s8 20.8 0 28.8l-88 88.8zM1000 847.2c0 20-4.8 36.8-14.4 50.4-8.8 13.6-20.8 22.4-32 27.2-10.4 5.6-21.6 8-28.8 8.8-4 0.8-7.2 0.8-9.6 0.8-1.6 0-2.4 0-3.2 0h-0.8c0 0 0 0 0-28v28.8h-803.2c-20 0-36.8-4.8-50.4-14.4-13.6-8.8-22.4-20-28-31.2-5.6-10.4-8-21.6-8.8-28.8-0.8-4-0.8-7.2-0.8-9.6 0-1.6 0-2.4 0-3.2v-0.8c0 0 0 0 28 0h-28.8v-643.2c0-20 4.8-36.8 14.4-50.4 8.8-13.6 20.8-22.4 32-27.2 10.4-5.6 21.6-8 28.8-8.8 4-0.8 7.2-0.8 9.6-0.8 1.6 0 2.4 0 3.2 0h0.8c0 0 0 0 0 28v-28h312.8c-6.4-36-19.2-70.4-40-100.8l-0.8-0.8-1.6-2.4h-54.4c-16 0-28-12.8-28-28s12.8-28 28-28h369.6c16 0 28 12.8 28 28s-12.8 28-28 28h-53.6l-1.6 2.4-0.8 0.8c-20 30.4-33.6 64.8-40 100.8h312.8c20 0 36.8 4.8 50.4 14.4 13.6 8.8 22.4 20.8 27.2 32 5.6 10.4 8 21.6 8.8 28.8 0.8 4 0.8 7.2 0.8 9.6 0 1.6 0 2.4 0 3.2v0.8c0 0 0 0-28 0h28v641.6zM444.8 11.2c16.8 32.8 28 68 33.6 104h63.2c4.8-36 16-72 33.6-104h-130.4zM943.2 204c0 0 0 0 0 0s0-0.8 0-0.8 0-2.4-0.8-4c-0.8-4-1.6-8.8-4-12.8s-4.8-7.2-8-9.6c-3.2-2.4-8.8-4.8-19.2-4.8h-343.2c0 0-0.8 0-0.8 0h-115.2c0 0-0.8 0-0.8 0h-343.2c0 0 0 0 0 0s0 0-0.8 0-2.4 0-4 0.8c-4 0.8-8.8 1.6-12.8 4s-7.2 4.8-9.6 8c-2.4 3.2-4.8 8.8-4.8 19.2v32h868v-32zM943.2 292.8h-867.2v553.6c0 0 0 0.8 0 0.8 0 0.8 0 2.4 0.8 4 0.8 4 1.6 8.8 4 12.8s4.8 7.2 8 9.6c3.2 2.4 8.8 4.8 19.2 4.8h803.2c0 0 0.8 0 0.8 0 0.8 0 2.4 0 4-0.8 4-0.8 8.8-1.6 12.8-4s7.2-4.8 9.6-8c2.4-3.2 4.8-8.8 4.8-19.2v-553.6z" />
            <glyph unicode="&#xe905;" glyph-name="request-a-quote"
                d="M944 507.2c-15.2 4.8-40.8 8.8-61.6-9.6l-18.4-12.8v347.2c0 48.8-41.6 90.4-90.4 90.4h-526.4c-48.8 0-90.4-41.6-90.4-90.4v-348l-19.2 13.6c-20 18.4-46.4 14.4-61.6 9.6-1.6-0.8-3.2-0.8-4-1.6-10.4-5.6-18.4-14.4-24-22.4-4-9.6-8-20.8-8-33.6v-378.4c0-48.8 41.6-90.4 90.4-90.4h760.8c48.8 0 90.4 41.6 90.4 90.4v378.4c-0.8 16-6.4 47.2-37.6 57.6zM220.8 832c0 13.6 12.8 27.2 27.2 27.2h526.4c13.6 0 27.2-12.8 27.2-27.2v-392.8l-237.6-170.4c-0.8 0-0.8-0.8-1.6-0.8-31.2-25.6-72.8-25.6-104 0-0.8 0.8-0.8 0.8-1.6 0.8l-236 169.6v393.6zM917.6 71.2c0-13.6-12.8-27.2-27.2-27.2h-760c-13.6 0-27.2 12.8-27.2 27.2v373.6l316-227.2c54.4-44 128.8-44 182.4 0l316 227.2v-373.6zM479.2 385.6c0-17.6 14.4-32 32-32s32 14.4 32 32v27.2c18.4 1.6 36 8 50.4 20 16.8 13.6 27.2 32.8 31.2 53.6s0.8 42.4-9.6 61.6c-10.4 19.2-26.4 33.6-46.4 41.6l-92.8 37.6c-6.4 2.4-11.2 7.2-14.4 12.8s-4 12.8-3.2 20c1.6 6.4 4.8 12.8 9.6 16.8s11.2 6.4 18.4 6.4h24c0 0 0 0 0 0s0 0 0 0h67.2c17.6 0 32 14.4 32 32s-14.4 32-32 32h-35.2v19.2c0 17.6-14.4 32-32 32s-32-14.4-32-32v-20.8c-18.4-1.6-36.8-8-51.2-20-16.8-13.6-27.2-32.8-31.2-53.6s-0.8-42.4 9.6-61.6c10.4-19.2 26.4-33.6 46.4-41.6l92.8-37.6c6.4-2.4 11.2-7.2 14.4-12.8s4-12.8 3.2-20c-1.6-6.4-4.8-12.8-9.6-16.8s-11.2-6.4-18.4-6.4h-91.2c-17.6 0-32-14.4-32-32s14.4-32 32-32h36v-25.6z" />
            <glyph unicode="&#xe906;" glyph-name="help-agencies"
                d="M715.2 569.6c-152.8 0-276.8-124-276.8-276.8s124-276.8 276.8-276.8c152.8 0 276.8 124 276.8 276.8s-124 276.8-276.8 276.8zM715.2 73.6c-120.8 0-219.2 98.4-219.2 219.2s98.4 219.2 219.2 219.2c120.8 0 219.2-98.4 219.2-219.2s-98.4-219.2-219.2-219.2zM715.2 188.8c-16.8 0-30.4-13.6-30.4-30.4s13.6-30.4 30.4-30.4c16.8 0 30.4 13.6 30.4 30.4s-13.6 30.4-30.4 30.4zM184.8 556c0-18.4 14.4-32.8 32-32.8h252c17.6 0 32 14.4 32 32.8s-14.4 32.8-32 32.8h-252c-17.6 0-32-15.2-32-32.8zM374.4 464l-157.6 0.8c-17.6 0-32-14.4-32-32.8s14.4-32.8 32-32.8l157.6-0.8c17.6 0 32 14.4 32 32.8s-14.4 32.8-32 32.8zM342.4 341.6h-125.6c-17.6 0-32-14.4-32-32.8s14.4-32.8 32-32.8h125.6c17.6 0 32 14.4 32 32.8 0 17.6-14.4 32.8-32 32.8zM325.6 164.8h-198.4c-5.6 0-10.4 2.4-14.4 5.6-4 4-5.6 8.8-5.6 14.4v519.2c0 11.2 8.8 20 20 20h134.4c5.6 0 10.4 4 14.4 9.6s5.6 13.6 5.6 20c0 31.2 12 55.2 30.4 70.4 18.4 16 42.4 23.2 67.2 23.2 24 0 48.8-8 67.2-23.2 18.4-16 30.4-39.2 30.4-70.4 0-16 12.8-29.6 29.6-29.6h124c5.6 0 10.4-2.4 14.4-5.6 4-4 5.6-8.8 5.6-14.4v-34.4c0-16 12.8-29.6 29.6-29.6 16 0 29.6 12.8 29.6 29.6v34.4c0 20.8-8 40.8-23.2 56-15.2 14.4-35.2 23.2-56 23.2h-95.2c-1.6 0-3.2 0.8-3.2 3.2-6.4 28.8-20.8 55.2-41.6 76-28.8 28.8-70.4 44.8-111.2 44.8-32.8 0-55.2-4-73.6-11.2-17.6-7.2-32-18.4-48-33.6-8-7.2-18.4-20.8-26.4-34.4-8-14.4-13.6-28.8-13.6-40 0-1.6-1.6-3.2-3.2-4h-34.4c-18.4 0-40.8 0-53.6 0-20.8 0-40.8-8-56-23.2-14.4-15.2-22.4-35.2-22.4-56.8v-519.2c0-20.8 8-40.8 23.2-56 15.2-14.4 35.2-23.2 56-23.2h198.4c16 0 29.6 12.8 29.6 29.6-0.8 16-13.6 29.6-29.6 29.6zM420.8 764c0 23.2-19.2 42.4-42.4 42.4s-42.4-19.2-42.4-42.4c0-23.2 19.2-42.4 42.4-42.4 24 0 42.4 19.2 42.4 42.4zM711.2 461.6c-13.6-0.8-27.2-4-39.2-9.6-16.8-8-31.2-20.8-40.8-36.8s-15.2-34.4-15.2-52.8c0-13.6 11.2-24 24-24 13.6 0 24 11.2 24 24 0 9.6 2.4 19.2 8 27.2 4.8 8 12 14.4 20.8 18.4 6.4 3.2 12.8 4.8 20 4.8 28 0.8 52.8-23.2 52.8-50.4 0-23.2-16.8-44.8-40-49.6-9.6-2.4-18.4-7.2-24.8-15.2s-10.4-17.6-10.4-28v-22.4c0-13.6 11.2-24 24-24 13.6 0 24 11.2 24 24v18.4c43.2 11.2 75.2 51.2 75.2 96 0 56-48 101.6-102.4 100z" />
            <glyph unicode="&#xe907;" glyph-name="event-type"
                d="M732.8 452.8c-0.8 0-1.6 0.8-2.4 0.8s-1.6 0-2.4-0.8c-0.8 0-0.8-0.8-1.6-0.8l-57.6-133.6c-4-9.6-13.6-16-24-16h-111.2c0 0-0.8 0-0.8 0s-0.8 0-0.8 0c0 0-0.8-0.8-0.8-0.8s0-0.8 0-0.8c0 0 0-0.8 0.8-0.8v0l97.6-87.2c8-7.2 11.2-19.2 6.4-29.6l-54.4-124.8c0-0.8 0-1.6 0-2.4s0.8-1.6 0.8-1.6 1.6-0.8 2.4-0.8c0.8 0 1.6 0 2.4 0.8v0l131.2 74.4c8 4.8 17.6 4.8 25.6 0l131.2-74.4c0.8 0 1.6-0.8 2.4-0.8s1.6 0 2.4 0.8c0.8 0.8 0.8 0.8 0.8 1.6s0 1.6 0 2.4l-54.4 124.8c-4.8 10.4-1.6 22.4 6.4 29.6l97.6 87.2c0 0 0.8 0.8 0.8 0.8s0 0.8 0 0.8c0 0 0 0.8-0.8 0.8 0 0-0.8 0-0.8 0s-0.8 0-0.8 0c0 0 0 0 0 0h-112.8c-10.4 0-20 6.4-24 16l-57.6 132.8c0 0.8-0.8 1.6-1.6 1.6zM731.2 505.6c10.4 0 20-2.4 28.8-8s16-12.8 20.8-21.6c0-0.8 0.8-0.8 0.8-1.6l51.2-119.2h95.2c11.2 0 21.6-2.4 30.4-8.8 9.6-6.4 16.8-14.4 20.8-24.8s4.8-21.6 2.4-32c-2.4-10.4-8-20.8-16.8-28l-84-74.4 47.2-108c4.8-10.4 5.6-22.4 3.2-33.6s-8.8-21.6-17.6-28.8c-8.8-8-20-12.8-31.2-13.6s-23.2 1.6-32.8 7.2l-118.4 66.4-118.4-67.2c-10.4-5.6-21.6-8-32.8-7.2s-22.4 5.6-31.2 13.6c-8.8 8-15.2 17.6-17.6 28.8s-1.6 23.2 3.2 33.6v0l46.4 108-84 74.4c-8 7.2-14.4 16.8-16.8 28-2.4 10.4-1.6 22.4 2.4 32 4 10.4 11.2 19.2 20.8 24.8 8.8 5.6 20 8.8 30.4 8.8h95.2l51.2 119.2c0 0.8 0.8 0.8 0.8 1.6 4.8 8.8 12 16.8 20.8 22.4 8.8 4.8 19.2 8 29.6 8zM865.6 805.6c-3.2 8-8 15.2-14.4 20.8-5.6 6.4-12.8 11.2-20 13.6-8 3.2-16 4.8-24.8 4.8h-124.8v49.6c0 14.4-12 25.6-25.6 25.6-14.4 0-25.6-12-25.6-25.6v-49.6h-325.6v49.6c0 14.4-12 25.6-25.6 25.6-14.4 0-25.6-12-25.6-25.6v-49.6h-125.6c-16.8 0-32.8-7.2-44.8-19.2-5.6-5.6-10.4-12.8-13.6-20.8-3.2-7.2-4.8-15.2-4.8-24v-151.2c0 0.8 0 1.6 0.8 2.4v-4.8c0 0.8-0.8 1.6-0.8 2.4v-376.8c0-16.8 6.4-32.8 18.4-45.6 12-12 28-18.4 44.8-18.4h301.6c14.4 0 25.6 12 25.6 25.6s-11.2 25.6-25.6 25.6h-301.6c-3.2 0-5.6 1.6-8 3.2-2.4 2.4-3.2 4.8-3.2 8.8v351.2h701.6v-67.2c0-14.4 11.2-25.6 25.6-25.6s25.6 11.2 25.6 25.6v94.4c0-0.8 0-1.6-0.8-2.4v4c0-0.8 0.8-1.6 0.8-2.4v151.2c0 8.8-1.6 16.8-4 24.8zM116.8 785.6c0.8 1.6 1.6 3.2 3.2 4 2.4 2.4 4.8 4 8 4h124.8v-87.2c0-14.4 12-25.6 25.6-25.6 14.4 0 25.6 12 25.6 25.6v86.4h324.8v-87.2c0-14.4 12-25.6 25.6-25.6 14.4 0 25.6 12 25.6 25.6v87.2h124.8c1.6 0 3.2-0.8 4-0.8 1.6-0.8 3.2-1.6 4-3.2 0.8-0.8 1.6-2.4 2.4-4s0.8-3.2 0.8-4v-124h-699.2v124c0 1.6 0 3.2 0 4.8z" />
            <glyph unicode="&#xe908;" glyph-name="services"
                d="M948.8 427.2c-22.4 2.4-42.4-12.8-44.8-35.2-9.6-76.8-41.6-148.8-92-207.2s-117.6-100.8-192-121.6c-74.4-20.8-153.6-18.4-227.2 5.6s-137.6 69.6-185.6 130.4-76 134.4-81.6 212c-5.6 76.8 12 154.4 49.6 221.6 38.4 67.2 95.2 121.6 164 156.8 68.8 34.4 147.2 48 223.2 38.4 22.4-2.4 42.4 12.8 44.8 35.2s-12.8 42.4-35.2 44.8c-91.2 12-184.8-4-268.8-46.4-83.2-41.6-152.8-108-198.4-188.8s-66.4-174.4-60-267.2 40.8-181.6 98.4-255.2c57.6-73.6 135.2-128.8 224-157.6 88.8-29.6 184-32 273.6-7.2s170.4 76 231.2 146.4c60.8 70.4 100 157.6 111.2 250.4 3.2 22.4-12.8 42.4-34.4 44.8zM495.2 384.8c-2.4-0.8-4.8-1.6-7.2-1.6s-4.8 0.8-7.2 1.6c-2.4 0.8-4 2.4-5.6 4l-128.8 141.6c-15.2 16.8-40.8 17.6-56.8 3.2-16.8-15.2-17.6-40.8-3.2-56.8l129.6-144c0.8-0.8 0.8-0.8 1.6-1.6 9.6-9.6 20-16.8 32.8-21.6 12-4.8 24.8-8 38.4-8 12.8 0 26.4 2.4 38.4 8 12 4.8 23.2 12.8 32.8 21.6 0 0 0.8 0.8 0.8 0.8l382.4 408c15.2 16 14.4 41.6-1.6 56.8s-41.6 14.4-56.8-1.6l-384-407.2c-1.6-1.6-4-2.4-5.6-3.2z" />
            <glyph unicode="&#xe909;" glyph-name="companies"
                d="M44 831.2v-787.2c0-15.2 12.8-28 28-28h904v520.8c0 31.2-24.8 56-56 56h-343.2v238.4c0 15.2-12.8 28-28 28h-476c-15.2 0-28-12.8-28-28zM100.8 72v731.2h420v-731.2h-420zM577.6 72v464.8h343.2v-464.8h-343.2zM444 637.6h-266.4v56h266.4v-56zM444 465.6h-266.4v56h266.4v-56zM444 296.8h-266.4v56h266.4v-56zM864.8 368h-224.8v56h224.8v-56zM864.8 240.8h-224.8v56h224.8v-56z" />
            <glyph unicode="&#xe90a;" glyph-name="agencies"
                d="M380 46.4h-237.6c-5.6 0-10.4 2.4-14.4 5.6-4 4-5.6 8.8-5.6 13.6v622.4c0 11.2 8.8 20 20 20h160.8c17.6 0 28 23.2 28 39.2 0 144.8 224.8 144 224.8 0 0-21.6 17.6-39.2 39.2-39.2h148.8c5.6 0 10.4-2.4 14.4-5.6 4-4 5.6-8.8 5.6-13.6v-41.6c0-21.6 17.6-39.2 39.2-39.2s39.2 17.6 39.2 39.2v40.8c0 26.4-10.4 51.2-28.8 69.6s-44 28.8-69.6 28.8h-112.8c-7.2 35.2-24.8 67.2-51.2 92.8-35.2 35.2-86.4 55.2-136 55.2-80 0-109.6-19.2-148-55.2-20.8-18.4-48.8-64.8-48.8-92.8 0 0-73.6-0.8-104.8-0.8-26.4 0-51.2-10.4-69.6-28.8s-28.8-43.2-28.8-69.6v-621.6c0-26.4 10.4-51.2 28.8-69.6s44-28.8 69.6-28.8h237.6c21.6 0 39.2 17.6 39.2 39.2s-17.6 40-39.2 40zM656.8 510.4c0 21.6-17.6 39.2-39.2 39.2h-356c-21.6 0-39.2-17.6-39.2-39.2s17.6-39.2 39.2-39.2h356c21.6-0.8 39.2 17.6 39.2 39.2zM976.8 484v0c-23.2 23.2-54.4 36-87.2 36s-64-12.8-87.2-36l-301.6-300.8c-5.6-5.6-9.6-12.8-11.2-20l-29.6-148c-2.4-12.8 1.6-26.4 10.4-35.2 9.6-9.6 22.4-13.6 35.2-10.4l148 29.6c8 1.6 14.4 5.6 20 10.4l301.6 300.8c23.2 23.2 36 54.4 36 87.2 1.6 32-11.2 63.2-34.4 86.4zM921.6 365.6l-293.6-292.8-79.2-16 16 78.4 293.6 292.8c8 8 19.2 12.8 31.2 12.8s23.2-4.8 31.2-12.8v0c8-8 12.8-19.2 12.8-31.2 0.8-11.2-4-22.4-12-31.2zM538.4 362.4c0 21.6-17.6 39.2-39.2 39.2h-237.6c-21.6 0-39.2-17.6-39.2-39.2s17.6-39.2 39.2-39.2h237.6c21.6 0 39.2 17.6 39.2 39.2zM261.6 253.6c-21.6 0-39.2-17.6-39.2-39.2s17.6-39.2 39.2-39.2h118.4c21.6 0 39.2 17.6 39.2 39.2s-17.6 39.2-39.2 39.2h-118.4zM500 759.2c0 31.2-24.8 56-56 56s-56-24.8-56-56 24.8-56 56-56 56 24.8 56 56z" />
            <glyph unicode="&#xe90b;" glyph-name="help-companies"
                d="M144.8 584.8h208.8v-44h-208.8v44zM144.8 450.4h208.8v-44h-208.8v44zM144.8 317.6h208.8v-44h-208.8v44zM520 340h145.6v-44h-145.6v44zM520 235.2h145.6v-44h-145.6v44zM1000 611.2c0 138.4-112.8 251.2-251.2 251.2s-251.2-112.8-251.2-251.2c0-37.6 8.8-73.6 23.2-105.6h-62.4v187.2c0 12-9.6 22.4-22.4 22.4h-373.6c-12 0-22.4-9.6-22.4-22.4v-618.4c0-12 9.6-22.4 22.4-22.4h710.4v308.8c127.2 12 227.2 119.2 227.2 250.4zM414.4 96.8h-330.4v574.4h330.4v-574.4zM458.4 96.8v364.8h88.8c41.6-56 106.4-94.4 180.8-100.8v-264h-269.6zM748.8 408c-112.8 0-203.2 91.2-203.2 203.2 0 112.8 91.2 203.2 203.2 203.2 112.8 0 203.2-91.2 203.2-203.2s-91.2-203.2-203.2-203.2zM748.8 516.8c-16 0-28.8-12.8-28.8-28.8s12.8-28.8 28.8-28.8c16 0 28.8 12.8 28.8 28.8s-12.8 28.8-28.8 28.8zM746.4 770.4c-13.6-0.8-27.2-4-39.2-9.6-16.8-8-31.2-20.8-40.8-36.8s-15.2-34.4-15.2-52.8c0-13.6 11.2-24 24-24 13.6 0 24 11.2 24 24 0 9.6 2.4 19.2 8 27.2 4.8 8 12 14.4 20.8 18.4 6.4 3.2 12.8 4.8 20 4.8 28 0.8 52.8-23.2 52.8-50.4 0-23.2-16.8-44.8-40-49.6-9.6-2.4-18.4-7.2-24.8-15.2s-10.4-17.6-10.4-28v-22.4c0-13.6 11.2-24 24-24 13.6 0 24 11.2 24 24v18.4c43.2 11.2 75.2 51.2 75.2 96 0.8 56-47.2 102.4-102.4 100z" />
            <glyph unicode="&#xe90c;" glyph-name="companies-plan"
                d="M788.8 415.2h-288v285.6c0 12.8-10.4 24-24 24h-400c-12.8 0-24-10.4-24-24v-660.8c0-12.8 10.4-24 24-24h759.2l-0.8 352c0.8 26.4-20 47.2-46.4 47.2zM454.4 63.2h-352.8v613.6h352.8v-613.6zM501.6 63.2v304.8h288l0.8-304.8h-288.8zM166.4 584.8h224v-47.2h-224v47.2zM166.4 440.8h224v-47.2h-224v47.2zM166.4 299.2h224v-47.2h-224v47.2zM567.2 299.2h155.2v-47.2h-155.2v47.2zM567.2 198.4h155.2v-47.2h-155.2v47.2zM956.8 868v0c-18.4 18.4-44 28.8-69.6 28.8-26.4 0-51.2-10.4-69.6-28.8l-212.8-216.8c-4-4-6.4-8.8-8-14.4l-24.8-124c-1.6-9.6 0.8-19.2 8-25.6 6.4-6.4 16-9.6 25.6-8l124.8 24.8c5.6 0.8 10.4 4 14.4 8l212 216.8c18.4 18.4 28.8 43.2 28.8 69.6s-10.4 51.2-28.8 69.6zM921.6 767.2l-211.2-211.2c-0.8-0.8-1.6-0.8-2.4-1.6l-72-14.4c-1.6 0-3.2 0-4 1.6-0.8 0.8-1.6 2.4-1.6 4l14.4 72c0 0.8 0.8 1.6 1.6 2.4l210.4 212c8.8 8.8 20 13.6 32 13.6s24-4.8 32-13.6v0c8.8-8.8 13.6-20 13.6-32 0-12.8-4.8-24-12.8-32.8z" />
            <glyph unicode="&#xe90d;" glyph-name="offers"
                d="M680 616c-9.6 9.6-24 9.6-33.6 0l-292-292.8c-9.6-9.6-9.6-24 0-33.6s24-9.6 33.6 0l292 292.8c9.6 8.8 9.6 24 0 33.6zM454.4 515.2c14.4 14.4 23.2 34.4 23.2 55.2s-8 40.8-23.2 55.2c-14.4 14.4-34.4 23.2-55.2 23.2s-40.8-8-55.2-23.2c-14.4-14.4-23.2-34.4-23.2-55.2s8-40.8 23.2-55.2c14.4-14.4 34.4-23.2 55.2-23.2 20.8 0.8 40.8 8.8 55.2 23.2zM368 571.2c0 8 3.2 16 8.8 22.4 5.6 5.6 13.6 8.8 22.4 8.8 8 0 16-3.2 22.4-8.8 5.6-5.6 8.8-13.6 8.8-22.4s-3.2-16-8.8-22.4c-5.6-5.6-13.6-8.8-22.4-8.8-8 0-16 3.2-22.4 8.8-5.6 5.6-8.8 13.6-8.8 22.4zM635.2 412.8c-20.8 0-40.8-8-55.2-23.2-14.4-14.4-23.2-34.4-23.2-55.2s8-40.8 23.2-55.2c14.4-14.4 34.4-23.2 55.2-23.2s40.8 8 55.2 23.2c14.4 14.4 23.2 34.4 23.2 55.2s-8 40.8-23.2 55.2c-14.4 15.2-34.4 23.2-55.2 23.2zM657.6 312.8c-5.6-5.6-13.6-8.8-22.4-8.8-8 0-16 3.2-22.4 8.8-5.6 5.6-8.8 13.6-8.8 22.4s3.2 16 8.8 22.4c5.6 5.6 13.6 8.8 22.4 8.8 8 0 16-3.2 22.4-8.8 5.6-5.6 8.8-13.6 8.8-22.4s-3.2-16.8-8.8-22.4zM930.4 547.2c-15.2 21.6-34.4 40-57.6 52.8 7.2 24.8 8 52 3.2 77.6-6.4 33.6-22.4 64-46.4 88s-55.2 40-88 46.4c-25.6 4.8-52.8 4-77.6-3.2-12.8 23.2-30.4 42.4-52.8 57.6-28 19.2-61.6 29.6-95.2 29.6-34.4 0-67.2-10.4-95.2-29.6-21.6-15.2-40-34.4-52.8-57.6-24.8 7.2-52 8-77.6 3.2-33.6-6.4-64-22.4-88-46.4s-40-55.2-46.4-88c-4.8-25.6-4-52.8 3.2-77.6-23.2-12.8-42.4-30.4-57.6-52.8-19.2-28-29.6-61.6-29.6-95.2 0-34.4 10.4-67.2 29.6-95.2 15.2-21.6 34.4-40 57.6-52.8-7.2-24.8-8-52-3.2-77.6 6.4-33.6 22.4-64 46.4-88s55.2-40 88-46.4c25.6-4.8 52.8-4 77.6 3.2 12.8-23.2 30.4-42.4 52.8-57.6 28-19.2 61.6-29.6 95.2-29.6 34.4 0 67.2 10.4 95.2 29.6 21.6 15.2 40 34.4 52.8 57.6 24.8-7.2 52-8 77.6-3.2 33.6 6.4 64 22.4 88 46.4s40 55.2 46.4 88c4.8 25.6 4 52.8-3.2 77.6 22.4 12.8 42.4 30.4 57.6 52.8 19.2 28 29.6 61.6 29.6 95.2v0c0 33.6-10.4 67.2-29.6 95.2zM891.2 383.2c-13.6-20-33.6-36-56-44.8-5.6-2.4-10.4-7.2-12.8-12.8s-2.4-12.8 0-18.4c9.6-22.4 12.8-47.2 8-71.2s-16-46.4-33.6-64c-17.6-17.6-39.2-28.8-64-33.6-24-4.8-48.8-1.6-71.2 8-5.6 2.4-12.8 2.4-18.4 0s-10.4-7.2-12.8-12.8c-8.8-23.2-24.8-42.4-44.8-56s-44-21.6-68.8-21.6c-24.8 0-48.8 7.2-68.8 21.6-20 13.6-36 33.6-44.8 56-2.4 5.6-7.2 10.4-12.8 12.8s-12.8 2.4-18.4 0c-22.4-9.6-47.2-12.8-71.2-8s-46.4 16-64 33.6c-17.6 17.6-28.8 39.2-33.6 64-4.8 24-1.6 48.8 8 71.2 2.4 5.6 2.4 12.8 0 18.4s-7.2 10.4-12.8 12.8c-23.2 8.8-42.4 24.8-56 44.8s-21.6 44-21.6 68.8c0 24.8 7.2 48.8 21.6 68.8 13.6 20 33.6 36 56 44.8 5.6 2.4 10.4 7.2 12.8 12.8s2.4 12.8 0 18.4c-9.6 22.4-12.8 47.2-8 71.2s16 46.4 33.6 64c17.6 17.6 39.2 28.8 64 33.6 24 4.8 48.8 1.6 71.2-8 5.6-2.4 12.8-2.4 18.4 0s10.4 7.2 12.8 12.8c8.8 23.2 24.8 42.4 44.8 56s44 21.6 68.8 21.6c24.8 0 48.8-7.2 68.8-21.6 20-13.6 36-33.6 44.8-56 2.4-5.6 7.2-10.4 12.8-12.8s12.8-2.4 18.4 0c22.4 9.6 47.2 12.8 71.2 8s46.4-16 64-33.6c17.6-17.6 28.8-39.2 33.6-64 4.8-24 1.6-48.8-8-71.2-2.4-5.6-2.4-12.8 0-18.4s7.2-10.4 12.8-12.8c23.2-8.8 42.4-24.8 56-44.8s21.6-44 21.6-68.8c0-24.8-7.2-48.8-21.6-68.8z" />
            <glyph unicode="&#xe90e;" glyph-name="meetings--events"
                d="M886.4 912h-752c-5.6 0-9.6-4-9.6-9.6v-559.2c0-5.6 4-9.6 9.6-9.6h360c-1.6-0.8-3.2-2.4-4-4l-192.8-192.8c-11.2-11.2-11.2-29.6 0-40.8s29.6-11.2 40.8 0l144 143.2v-243.2c0-16 12.8-28.8 28.8-28.8s28.8 12.8 28.8 28.8v243.2l144-143.2c11.2-11.2 29.6-11.2 40.8 0s11.2 29.6 0 40.8l-194.4 192.8c-0.8 1.6-3.2 3.2-4 4h360c5.6 0 9.6 4 9.6 9.6v559.2c0 5.6-4 9.6-9.6 9.6zM838.4 394.4h-656.8v276.8h656.8v-276.8zM838.4 719.2h-656.8v131.2h656.8v-131.2z" />
            <glyph unicode="&#xe90f;" glyph-name="nh-plus"
                d="M632 452h-156v149.6h-67.2v-361.6h67.2v149.6h156v-149.6h67.2v361.6h-67.2zM262.4 608c-46.4 0-80.8-21.6-111.2-51.2l-15.2-14.4v60h-112v-52.8h49.6v-309.6h65.6v266.4l3.2 2.4c22.4 18.4 56.8 40.8 92 40.8 28.8 0 42.4-14.4 49.6-27.2 4.8-9.6 8-22.4 8-38.4v-244h65.6v265.6c0 25.6-5.6 46.4-16 64-16.8 24.8-44 38.4-79.2 38.4zM904.8 502.4v98.4h-57.6v-98.4h-98.4v-57.6h98.4v-99.2h57.6v99.2h98.4v57.6z" />
            <glyph unicode="&#xe910;" glyph-name="pro-blog"
                d="M939.2 729.6c-4.8 11.2-11.2 21.6-20 30.4v0l-107.2 108c-8.8 8.8-19.2 16-30.4 20.8s-24 7.2-36 7.2-25.6-2.4-36.8-7.2c-11.2-4.8-21.6-12-30.4-20.8l-501.6-499.2c-4-4-6.4-8.8-8-14.4l-76.8-274.4c-3.2-11.2 0-23.2 8-31.2s20-11.2 31.2-8l274.4 76.8c5.6 1.6 10.4 4 14.4 8l499.2 501.6c8.8 8.8 15.2 19.2 20 30.4s7.2 23.2 7.2 36-2.4 24.8-7.2 36zM226.4 324.8l148.8-148.8-206.4-57.6 57.6 206.4zM880 683.2c-1.6-3.2-4-6.4-6.4-9.6v0l-451.2-454.4-152 152 453.6 452c2.4 2.4 5.6 4.8 9.6 6.4 3.2 1.6 7.2 2.4 11.2 2.4s8-0.8 11.2-2.4c3.2-1.6 6.4-4 9.6-6.4l108-108.8c2.4-2.4 4.8-5.6 6.4-9.6 1.6-3.2 2.4-7.2 2.4-11.2s-0.8-7.2-2.4-10.4z" />
            <glyph unicode="&#xe911;" glyph-name="sustainability"
                d="M672 600.8c-60.8 8.8-123.2 3.2-181.6-16.8s-111.2-53.6-154.4-97.6c0 0-0.8-0.8-0.8-0.8-38.4-42.4-56-91.2-43.2-141.6 9.6-37.6 35.2-70.4 70.4-98.4-7.2-26.4-12.8-56-15.2-90.4-1.6-20 12.8-37.6 32.8-39.2s37.6 12.8 39.2 32.8c1.6 18.4 4 34.4 7.2 49.6 5.6-4 11.2-7.2 17.6-11.2 32-17.6 82.4-34.4 133.6-12v0c94.4 40.8 113.6 126.4 117.6 200 0.8 25.6 0.8 52.8 0 77.6 0 9.6-0.8 19.2-0.8 28-0.8 32.8 0.8 56.8 6.4 72.8 4 10.4 2.4 21.6-3.2 31.2-5.6 8.8-15.2 14.4-25.6 16zM622.4 448c0.8-23.2 1.6-46.4 0-68.8-3.2-65.6-19.2-113.6-73.6-137.6-21.6-9.6-46.4-4-70.4 9.6-11.2 6.4-21.6 13.6-28.8 19.2-0.8 0.8-1.6 0.8-2.4 1.6 8 19.2 16.8 33.6 24.8 44.8 10.4 14.4 20 23.2 26.4 28.8 3.2 2.4 5.6 4 7.2 4.8 0.8 0 0.8 0.8 0.8 0.8v0 0 0 0c0 0 0 0 0.8 0 17.6 8.8 24.8 30.4 16.8 48-8.8 18.4-30.4 25.6-48 16.8l15.2-32c-15.2 32-15.2 32-15.2 32v0 0 0h-0.8c-0.8 0-0.8-0.8-1.6-0.8-1.6-0.8-3.2-1.6-4.8-2.4-4-2.4-8.8-5.6-14.4-9.6-11.2-8.8-25.6-22.4-40-42.4-8.8-12-16.8-25.6-24.8-41.6-15.2 15.2-24 30.4-27.2 43.2-5.6 20.8 0 46.4 26.4 75.2 35.2 36 77.6 63.2 125.6 79.2 35.2 12 72.8 17.6 110.4 16.8-1.6-17.6-1.6-36-1.6-52.8-1.6-12-0.8-22.4-0.8-32.8zM508 350.4v0c0 0 0 0.8 0 0 0 0.8 0 0.8 0 0zM901.6 585.6l-308.8 308.8c-10.4 10.4-23.2 19.2-36.8 24.8-14.4 5.6-28.8 8.8-44 8.8s-29.6-3.2-43.2-8.8c-13.6-5.6-26.4-14.4-36.8-24.8l-308.8-308.8c-21.6-21.6-32.8-50.4-32.8-80v-431.2c0-30.4 12-59.2 33.6-80 21.6-21.6 50.4-33.6 80-33.6h617.6c30.4 0 59.2 12 80 33.6 21.6 21.6 33.6 50.4 33.6 80v431.2c-0.8 30.4-12.8 59.2-33.6 80zM862.4 74.4c0-11.2-4-21.6-12-28.8-8-8-18.4-12-28.8-12h-618.4c-11.2 0-21.6 4-28.8 12-8 8-12 18.4-12 28.8v431.2c0 11.2 4 21.6 12 28.8l308.8 308.8c4 4 8 7.2 13.6 8.8 4.8 2.4 10.4 3.2 16 3.2s10.4-0.8 16-3.2c4.8-2.4 9.6-4.8 13.6-8.8l308.8-308.8c8-8 12-18.4 12-28.8v-431.2z" />
            <glyph unicode="&#xe912;" glyph-name="succes-stories"
                d="M971.2 234.4l-147.2 180c23.2 48 36 100 36 153.6 0 15.2-12.8 28-28 28s-28-12.8-28-28c0-64-20.8-126.4-60-177.6-38.4-51.2-92.8-88-154.4-105.6s-127.2-14.4-186.4 9.6c-59.2 23.2-109.6 65.6-143.2 120s-48 118.4-41.6 182.4c6.4 64 33.6 123.2 76.8 170.4s100.8 78.4 164 89.6c63.2 11.2 128 1.6 184.8-27.2 13.6-7.2 30.4-1.6 37.6 12s1.6 30.4-12 37.6c-68 34.4-145.6 46.4-220 32.8-75.2-13.6-144-51.2-195.2-107.2-52-56-84-127.2-91.2-203.2-6.4-64.8 6.4-129.6 35.2-188l-148.8-179.2c-6.4-8-8-17.6-4.8-27.2s11.2-16 20.8-18.4l130.4-26.4 53.6-160c3.2-10.4 12.8-17.6 23.2-19.2s21.6 4 27.2 12.8l144 228c44-8.8 88.8-8 132.8 0.8l144-228.8c5.6-8.8 16-14.4 27.2-12.8 10.4 1.6 20 8.8 23.2 19.2l53.6 160 130.4 26.4c9.6 1.6 17.6 8.8 20.8 18.4s1.6 20-4.8 27.2zM284 77.6l-40 119.2c-3.2 9.6-11.2 16.8-20.8 18.4l-100.8 20 105.6 128.8c39.2-54.4 92-96.8 155.2-121.6 1.6-0.8 3.2-0.8 4.8-1.6l-104-163.2zM797.6 215.2c-9.6-1.6-17.6-8.8-20.8-18.4l-40-119.2-104 164.8c61.6 23.2 116 62.4 156.8 115.2 1.6 1.6 2.4 4 4 6.4l104.8-128-100.8-20.8zM511.2 520.8c0 0-0.8 0 0 0-0.8 0-0.8 0-0.8 0s0 0 0 0l-67.2 67.2c-11.2 11.2-28.8 11.2-40 0s-11.2-28.8 0-40l67.2-67.2c5.6-5.6 12-9.6 18.4-12.8 7.2-3.2 14.4-4 21.6-4s15.2 1.6 21.6 4c7.2 3.2 13.6 7.2 18.4 12.8l213.6 213.6c11.2 11.2 11.2 28.8 0 40s-28.8 11.2-40 0l-212.8-213.6c0 0 0 0 0 0z" />
            <glyph unicode="&#xe913;" glyph-name="our-brands"
                d="M931.2 32.8h-132v741.6c0 16-7.2 30.4-19.2 40.8-11.2 9.6-26.4 15.2-41.6 15.2h-69.6v32.8c0 30.4-24.8 56-56 56h-168c-30.4 0-56-24.8-56-56v-32.8c0 0-0.8 0-0.8 0h-68c-15.2 0-29.6-4.8-41.6-15.2-12-9.6-19.2-24.8-19.2-40.8v-741.6h-132c-12.8 0-23.2-10.4-23.2-23.2s10.4-23.2 23.2-23.2h286.4c3.2-1.6 6.4-2.4 10.4-2.4s7.2 0.8 10.4 2.4h188.8c3.2-1.6 6.4-2.4 10.4-2.4s7.2 0.8 10.4 2.4h286.4c12.8 0 23.2 10.4 23.2 23.2 0.8 12.8-9.6 23.2-22.4 23.2zM447.2 826.4c0 16.8 13.6 30.4 30.4 30.4s30.4-13.6 30.4-30.4v-19.2h40v19.2c0 16.8 13.6 30.4 30.4 30.4s30.4-13.6 30.4-30.4v-88c0-16.8-13.6-30.4-30.4-30.4s-30.4 13.6-30.4 30.4v19.2h-40v-19.2c0-16.8-13.6-30.4-30.4-30.4s-30.4 13.6-30.4 30.4v88zM310.4 774.4c0 0 0 0 0 0 0 0.8 0.8 0.8 1.6 1.6 1.6 1.6 4 2.4 8 2.4h68.8c0 0 0.8 0 0.8 0v-74.4c0-30.4 24.8-56 56-56h168c30.4 0 56 24.8 56 56v75.2h69.6c4 0 6.4-1.6 8-2.4 0.8-0.8 0.8-0.8 0.8-1.6 0 0 0 0 0 0v-741.6h-88v137.6c0 16-7.2 31.2-18.4 41.6s-26.4 16-42.4 16h-140c-15.2 0-30.4-5.6-42.4-16-11.2-10.4-18.4-25.6-18.4-41.6v-138.4h-88v741.6zM608 32.8h-157.6v138.4c0 0.8 0.8 2.4 2.4 4s4 2.4 7.2 2.4h140c3.2 0 5.6-0.8 7.2-2.4s2.4-3.2 2.4-4v-138.4zM404.8 516c14.4 0 25.6 11.2 25.6 25.6v23.2c0 14.4-11.2 25.6-25.6 25.6s-25.6-11.2-25.6-25.6v-23.2c0-14.4 12-25.6 25.6-25.6zM529.6 516c14.4 0 25.6 11.2 25.6 25.6v23.2c0 14.4-11.2 25.6-25.6 25.6s-25.6-11.2-25.6-25.6v-23.2c0-14.4 12-25.6 25.6-25.6zM404.8 400.8c14.4 0 25.6 11.2 25.6 25.6v23.2c0 14.4-11.2 25.6-25.6 25.6s-25.6-11.2-25.6-25.6v-23.2c0-14.4 12-25.6 25.6-25.6zM653.6 516c14.4 0 25.6 11.2 25.6 25.6v23.2c0 14.4-11.2 25.6-25.6 25.6s-25.6-11.2-25.6-25.6v-23.2c0-14.4 11.2-25.6 25.6-25.6zM404.8 285.6c14.4 0 25.6 11.2 25.6 25.6v23.2c0 14.4-11.2 25.6-25.6 25.6s-25.6-11.2-25.6-25.6v-22.4c0-14.4 12-26.4 25.6-26.4zM529.6 400.8c14.4 0 25.6 11.2 25.6 25.6v23.2c0 14.4-11.2 25.6-25.6 25.6s-25.6-11.2-25.6-25.6v-23.2c0-14.4 12-25.6 25.6-25.6zM653.6 400.8c14.4 0 25.6 11.2 25.6 25.6v23.2c0 14.4-11.2 25.6-25.6 25.6s-25.6-11.2-25.6-25.6v-23.2c0-14.4 11.2-25.6 25.6-25.6zM529.6 285.6c14.4 0 25.6 11.2 25.6 25.6v23.2c0 14.4-11.2 25.6-25.6 25.6s-25.6-11.2-25.6-25.6v-22.4c0-14.4 12-26.4 25.6-26.4zM653.6 285.6c14.4 0 25.6 11.2 25.6 25.6v23.2c0 14.4-11.2 25.6-25.6 25.6s-25.6-11.2-25.6-25.6v-22.4c0-14.4 11.2-26.4 25.6-26.4z" />
            <glyph unicode="&#xe914;" glyph-name="spa"
                d="M505.969 827.441l191.73-374.052c30.221-56.599 28.095-127.283-4.443-183.81-33.139-57.556-96.952-99.215-186.877-99.215-91.789 0-150.308 48.191-179.262 107.84-28.028 57.742-28.959 127.481-6.1 174.53l0.067 0.137 184.886 374.572zM506.794 718.905l-141.936-287.552c-15.415-31.794-16.276-85.675 6.14-131.85 21.507-44.309 63.853-80.363 135.381-80.363 73.393 0 120.619 33.119 144.602 74.778 24.539 42.626 25.652 95.499 3.614 136.642l-0.21 0.389-147.592 287.956zM415.756 360.152c-8.222 21.745-11.353 45.699-11.4 59.409h48.776c-0.047-10.679 1.7-25.745 8.111-41.801 6.126-15.826 15.151-27.921 27.187-33.938l-21.815-43.627c-26.988 13.496-42.351 37.981-50.858 59.957zM280.286 284.547c1.722-13.36-7.71-25.583-21.068-27.31-68.509-8.813-123.792-20.715-162.737-35.037-18.972-6.906-31.564-13.154-40.48-20.233-4.928-3.565-6.126-6.356-6.577-7.409-0.066-0.151-0.116-0.268-0.16-0.346 0.355-0.674 1.059-1.649 2.442-2.911 4.638-4.917 10.85-8.97 21.791-14.311 22.887-11.385 55.664-21.398 98.689-30.359 86.889-18.178 206.296-29.33 339.813-29.299 133.516-0.029 252.92 11.121 339.809 29.299 43.025 8.96 75.803 18.974 98.689 30.359 10.941 5.341 17.154 9.394 21.794 14.311 1.459 1.337 2.161 2.346 2.497 3.020-0.253 0.692-0.985 3.146-5.443 6.565-7.653 6.512-18.373 12.203-35.030 18.73-34.334 13.609-83.203 25.135-144.588 34.177-13.325 1.966-22.53 14.365-20.564 27.69s14.365 22.53 27.69 20.559c63.443-9.389 117.731-22.275 155.357-37.055 19.32-7.667 36.773-17.165 48.304-26.583 12.185-10.121 23.486-24.672 23.486-43.655 0-15.511-7.638-28.164-16.877-37.587-8.35-8.336-21.3-17.072-35.030-23.909-26.466-12.974-65.096-24.9-110.312-34.363-89.593-18.666-213.99-30.31-349.779-30.334-135.788 0.024-260.189 11.667-349.78 30.334-45.216 9.463-83.848 21.388-110.31 34.363-13.735 6.838-26.684 15.575-35.035 23.909-9.239 9.423-16.877 22.076-16.877 37.587 0 20.233 12.781 35.396 26.071 45.728 12.804 9.809 32.069 19.579 53.643 27.525 42.15 15.374 102.726 28.49 173.271 37.611 13.359 1.722 25.585-7.707 27.307-21.067z" />
            <glyph unicode="&#xe915;" glyph-name="stairs"
                d="M27.219 116.706c-16.634 0-30.118-13.487-30.118-30.118s13.483-30.118 30.118-30.118v60.235zM268.161 86.588v-30.118c16.632 0 30.118 13.487 30.118 30.118h-30.118zM268.161 331.232v30.118c-16.632 0-30.118-13.483-30.118-30.118h30.118zM509.101 331.232v-30.118c16.632 0 30.118 13.485 30.118 30.118h-30.118zM509.101 568.471v30.118c-16.632 0-30.118-13.485-30.118-30.118h30.118zM750.042 568.471v-30.118c16.631 0 30.118 13.485 30.118 30.118h-30.118zM750.042 809.412v30.118c-16.631 0-30.118-13.483-30.118-30.118h30.118zM990.983 779.294c16.631 0 30.118 13.483 30.118 30.118s-13.487 30.118-30.118 30.118v-60.235zM27.219 56.471h240.941v60.235h-240.941v-60.235zM298.278 86.588v244.644h-60.235v-244.644h60.235zM268.161 301.114h240.941v60.235h-240.941v-60.235zM539.219 331.232v237.239h-60.235v-237.239h60.235zM509.101 538.353h240.941v60.235h-240.941v-60.235zM780.16 568.471v240.941h-60.235v-240.941h60.235zM750.042 779.294h240.941v60.235h-240.941v-60.235z" />
            <glyph unicode="&#xe916;" glyph-name="star"
                d="M511.999 934.938l120.866-371.988h391.135l-316.435-229.901 120.866-371.987-316.432 229.9-316.432-229.9 120.866 371.987-316.432 229.901h391.132l120.866 371.988z" />
            <glyph unicode="&#xe917;" glyph-name="swimming"
                d="M828.961 694.057h48.76v48.76c0 72.411-61.568 141.761-172.039 141.761-107.71 0-169.278-68.59-169.278-141.761v-48.76h48.76v48.76c0 42.262 35.57 93.001 120.518 93.001 82.136 0 123.279-46.096 123.279-93.001v-48.76zM24.379 694.057c-13.476 0-24.38-10.916-24.38-24.38s10.904-24.38 24.38-24.38h414.504v-605.020c0-13.467 10.904-24.38 24.38-24.38 13.427 0 24.381 10.913 24.381 24.38v112.912h341.268l0.049-117.38c0-13.467 10.902-24.38 24.38-24.38 13.473 0 24.38 10.913 24.38 24.38v609.486h121.899c13.473 0 24.38 10.916 24.38 24.38s-10.907 24.38-24.38 24.38h-511.97v48.76c0 72.411-61.57 141.761-172.041 141.761-107.71 0-169.278-68.59-169.278-141.761v-48.76h-121.946zM487.644 494.501v150.797h341.317l-0.049-150.797h-341.268zM487.644 445.741h341.268v-97.86h-341.268v97.86zM487.644 299.121h341.268v-97.178h-341.268v97.178zM315.603 835.818c82.139 0 123.279-46.096 123.279-93.001v-48.76h-243.798v48.76c0 42.262 35.57 93.001 120.518 93.001z" />
            <glyph unicode="&#xe918;" glyph-name="upgrade"
                d="M593.913 896.722c-43.114 50.001-120.675 50.001-163.79 0l-403.662-467.552c-60.444-70.113-10.673-178.913 82-178.913h91.195v-180.273c0-59.761 48.396-108.207 108.207-108.207h407.994c59.811 0 108.207 48.445 108.207 108.207v180.273h91.512c92.673 0 142.444 108.799 81.894 178.913l-403.557 467.552z" />
            <glyph unicode="&#xe919;" glyph-name="twitter"
                d="M919.177 668.512c0.379-9.495 0.617-19.063 0.617-28.702 0-293.152-211.323-631.177-597.731-631.177-118.637 0-229.068 36.75-322.063 99.714 16.445-2.094 33.198-3.107 50.121-3.107 98.431 0 189.032 35.454 260.932 94.985-91.934 1.731-169.509 65.89-196.28 154.014 12.855-2.563 26.017-3.971 39.556-3.971 19.18 0 37.711 2.671 55.352 7.762-96.14 20.398-168.518 110.077-168.518 217.518 0 0.939 0 1.878 0 2.816 28.309-16.643 60.721-26.571 95.183-27.762-56.412 39.785-93.473 107.73-93.473 184.665 0 40.687 10.359 78.776 28.446 111.521 103.593-134.229 258.436-222.499 433.006-231.778-3.589 16.246-5.471 33.178-5.471 50.544 0 122.531 94.086 221.813 210.125 221.813 60.378 0 114.98-26.932 153.343-70.038 47.829 9.964 92.789 28.412 133.369 53.864-15.69-51.807-48.995-95.311-92.347-122.748 42.465 5.379 82.978 17.293 120.656 34.911-28.173-44.479-63.796-83.541-104.824-114.842v0z" />
            <glyph unicode="&#xe91a;" glyph-name="waves"
                d="M51.201 692.622c-9.425 12.567-27.254 15.114-39.822 5.689s-15.114-27.254-5.689-39.822l45.511 34.133zM975.44 598.553c11.11-11.108 29.121-11.108 40.232 0 11.104 11.108 11.104 29.118 0 40.226l-40.232-40.226zM5.69 658.489c18.198-24.264 58.512-55.236 114.314-80.037 55.415-24.532 132.301-44.877 221.33-45.118v56.889c-81.637-0.241-146.974 17.34-198.225 40.215-50.864 22.606-81.661 48.523-91.908 62.185l-45.511-34.133zM341.334 533.333c91.238 0.619 160.886 30.896 224.886 59.34s122.352 55.057 201.781 54.437v56.889c-91.238-0.619-160.887-30.896-224.886-59.34s-122.352-55.057-201.781-54.437v-56.889zM768 647.111c65.712 0.115 113.567-8.644 149.282-20.008 35.242-11.152 53.185-23.576 58.157-28.549l40.232 40.226c-13.994 13.99-41.563 30.010-81.22 42.561-39.185 12.34-95.63 22.544-166.451 22.659v-56.889zM51.201 521.955c-9.425 12.567-27.254 15.114-39.822 5.689s-15.114-27.254-5.689-39.822l45.511 34.133zM975.44 427.887c11.11-11.108 29.121-11.108 40.232 0 11.104 11.108 11.104 29.118 0 40.226l-40.232-40.226zM5.69 487.822c18.198-24.264 58.512-55.236 114.314-80.037 55.415-24.532 132.301-44.877 221.33-45.118v56.889c-81.637-0.241-146.974 17.34-198.225 40.215-50.864 22.606-81.661 48.523-91.908 62.185l-45.511-34.133zM341.334 362.667c91.238 0.619 160.886 30.896 224.886 59.34s122.352 55.057 201.781 54.437v56.889c-91.238-0.619-160.887-30.896-224.886-59.34s-122.352-55.057-201.781-54.437v-56.889zM768 476.444c65.712 0.115 113.567-8.644 149.282-20.008 35.242-11.152 53.185-23.576 58.157-28.549l40.232 40.226c-13.994 13.99-41.563 30.010-81.22 42.561-39.185 12.34-95.63 22.544-166.451 22.659v-56.889zM51.201 351.289c-9.425 12.567-27.254 15.114-39.822 5.689s-15.114-27.254-5.689-39.822l45.511 34.133zM975.44 257.221c11.11-11.108 29.121-11.108 40.232 0 11.104 11.108 11.104 29.118 0 40.226l-40.232-40.226zM5.69 317.156c18.198-24.264 58.512-55.236 114.314-80.037 55.415-24.532 132.301-44.877 221.33-45.118v56.889c-81.637-0.241-146.974 17.34-198.225 40.215-50.864 22.606-81.661 48.523-91.908 62.185l-45.511-34.133zM341.334 192c91.238 0.619 160.886 30.896 224.886 59.34s122.352 55.057 201.781 54.437v56.889c-91.238-0.619-160.887-30.896-224.886-59.34s-122.352-55.057-201.781-54.437v-56.889zM768 305.778c65.712 0.115 113.567-8.644 149.282-20.008 35.242-11.152 53.185-23.576 58.157-28.549l40.232 40.226c-13.994 13.99-41.563 30.010-81.22 42.561-39.185 12.34-95.63 22.544-166.451 22.659v-56.889z" />
            <glyph unicode="&#xe91b;" glyph-name="zoom-in"
                d="M1008.199-15.237l-261.774 261.774c76.993 76.993 123.188 179.649 123.188 292.571 0 230.978-189.915 420.892-426.025 420.892s-431.157-195.047-431.157-426.025 189.915-420.892 426.025-420.892c102.657 0 195.047 35.929 266.907 92.39l261.774-261.774c10.265-10.265 25.664-10.265 35.929 0s10.265 30.797 5.133 41.063zM63.759 533.975c0 205.313 169.383 369.564 374.696 369.564 210.446 0 374.696-164.25 374.696-369.564 0-200.18-169.383-369.564-374.696-369.564-205.313 5.133-374.696 169.383-374.696 369.564zM628.37 544.241h-153.985v153.985c0 15.399-10.265 25.664-25.664 25.664s-25.664-10.265-25.664-25.664v-153.985h-153.985c-15.399 0-25.664-10.265-25.664-25.664s10.265-25.664 25.664-25.664h153.985v-153.985c0-15.399 10.265-25.664 25.664-25.664s25.664 10.265 25.664 25.664v153.985h153.985c15.399 0 25.664 10.265 25.664 25.664s-10.265 25.664-25.664 25.664z" />
            <glyph unicode="&#xe91c;" glyph-name="zoom-out"
                d="M626.478 544.241h-359.298c-15.399 0-25.664-10.265-25.664-25.664s10.265-25.664 25.664-25.664h359.298c15.399 0 25.664 10.265 25.664 25.664s-10.265 25.664-25.664 25.664zM1006.307-15.237l-261.774 261.774c76.993 76.993 123.188 179.649 123.188 292.571 0 230.978-189.915 420.892-426.025 420.892s-431.157-195.047-431.157-426.025 189.915-420.892 426.025-420.892c102.657 0 195.047 35.929 266.907 92.39l261.774-261.774c10.265-10.265 25.664-10.265 35.929 0 15.399 15.399 15.399 30.797 5.133 41.063zM61.866 533.975c0 205.313 169.383 369.564 374.696 369.564 210.446 0 374.696-164.25 374.696-369.564 0-200.18-169.383-369.564-374.696-369.564-205.313 5.133-374.696 169.383-374.696 369.564z" />
            <glyph unicode="&#xe91d;" glyph-name="phone"
                d="M926.895 60.885l-163.913 182.318c-14.37 14.694-35.92 22.039-50.284 7.344 0 0-25.014-25.475-44.402-35.391-14.369-7.344-35.919-14.689-43.102-22.039-93.384-14.689-208.317 132.232-244.233 190.999-71.834 117.542-64.651 205.695-57.467 220.388s21.55 29.384 35.917 36.731l62.929 36.731c14.367 7.346 21.55 29.384 14.367 51.423l-120.397 213.039c-14.367 14.692-35.917 22.039-50.284 14.692l-100.567-66.116c-7.129-5.253-21.55-13.414-21.55-14.692-35.917-29.384-64.65-66.116-57.467-146.924 7.183-66.116 35.917-249.769 179.584-455.46 7.183-14.694 208.318-279.154 459.733-337.926h71.834c57.469 14.694 93.383 29.383 114.933 51.422 35.92 22.039 28.735 58.772 14.37 73.461z" />
            <glyph unicode="&#xe91e;" glyph-name="position"
                d="M128 575.296c0 212.096 172.256 384.704 384 384.704s384-172.608 384-384.704c0-323.264-358.56-623.040-373.824-635.648-2.944-2.432-6.528-3.648-10.176-3.648s-7.328 1.248-10.304 3.776c-15.264 12.832-373.696 317.856-373.696 635.52zM512 416c88.365 0 160 71.635 160 160s-71.635 160-160 160c-88.365 0-160-71.635-160-160s71.635-160 160-160z" />
            <glyph unicode="&#xe91f;" glyph-name="user-check"
                d="M121.575 609.684l-118.75 129.442 33.188 36.479 85.562-92.963 179.941 196.516 33.186-36.479-213.127-232.995zM426.698 952.922c27.758 4.657 56.258 7.078 85.302 7.078 282.77 0 512-229.23 512-512s-229.23-512-512-512c-282.77 0-512 229.23-512 512 0 39.066 4.38 77.142 12.687 113.753l52.559-11.927c-7.425-32.722-11.351-66.8-11.351-101.826 0-253.003 205.101-458.105 458.105-458.105 253.003 0 458.105 205.102 458.105 458.105 0 253.005-205.102 458.105-458.105 458.105-26.045 0-51.561-2.171-76.382-6.335l-8.92 53.152zM790.546 199.052c-68.856-78.961-166.909-128.315-275.72-128.315-102.077 0-194.681 43.434-262.6 114.001 43.644 77.315 189.518 117.447 273.883 117.447 79.031 0 211.99-35.185 264.437-103.133zM675.549 482.856c0-79.395-67.204-144.384-149.38-144.384-82.181 0-149.385 64.989-149.385 144.384 0 79.419 67.204 144.381 149.385 144.381 82.176 0 149.38-64.962 149.38-144.381z" />
            <glyph unicode="&#xe920;" glyph-name="linkedin"
                d="M244.109 833.578c0-69.479-55.973-125.8-125.016-125.8s-125.016 56.321-125.016 125.8c0 69.476 55.972 125.798 125.016 125.798 69.047 0 125.016-56.321 125.016-125.798zM225.839 618.494h-211.416v-681.751h211.416v681.751zM563.745 618.509h-202.771v-681.753h202.771c0 0 0 252.872 0 357.874 0 95.869 44.214 152.935 128.832 152.935 77.754 0 115.11-54.783 115.11-152.935 0-98.155 0-357.874 0-357.874h210.39c0 0 0 249.068 0 431.676 0 182.611-103.668 270.875-248.508 270.875-144.846 0-205.826-112.611-205.826-112.611v91.813h0.002z" />
            <glyph unicode="&#xe921;" glyph-name="whatsapp"
                d="M1023.999 461.186c0-275.487-225.044-498.813-502.684-498.813-88.143 0-170.931 22.542-243.005 62.083l-278.311-88.457 90.742 267.633c-45.784 75.153-72.132 163.314-72.132 257.553 0 275.485 225.083 498.813 502.706 498.813 277.66 0 502.684-223.327 502.684-498.813zM521.316 880.569c-233.079 0-422.657-188.124-422.657-419.382 0-91.776 29.932-176.756 80.542-245.871l-52.834-155.756 162.423 51.632c66.756-43.818 146.668-69.35 232.527-69.35 233.037 0 422.635 188.086 422.635 419.344 0 231.239-189.599 419.382-422.635 419.382zM775.148 346.32c-3.092 5.077-11.303 8.146-23.632 14.259-12.308 6.115-72.92 35.712-84.184 39.754-11.284 4.105-19.533 6.252-27.724-6.056-8.212-12.111-31.824-39.655-39.032-47.86-7.188-8.204-14.376-9.182-26.704-3.126-12.308 6.056-51.988 19.145-99.052 60.754-36.628 32.429-61.38 72.477-68.568 84.725-7.188 12.211-0.788 18.813 5.396 24.909 5.552 5.47 12.328 14.259 18.511 21.41 6.164 7.168 8.212 12.269 12.288 20.434 4.136 8.204 2.068 15.315-1.024 21.45-3.072 6.113-27.767 66.281-38.007 90.761-10.24 24.458-20.479 20.375-27.708 20.375-7.225 0-15.556 1.035-23.629 1.035-8.272 0-21.663-3.086-32.888-15.315-11.421-12.269-43.126-41.808-43.126-101.976s44.11-118.323 50.214-126.47c6.107-8.206 85.132-135.694 210.511-184.61 125.244-48.956 125.244-32.623 147.888-30.592 22.451 2.031 72.863 29.557 83.103 58.098 10.24 28.521 10.24 53.057 7.148 58.158z" />
            <glyph unicode="&#xe922;" glyph-name="login"
                d="M511.699 643.529c89.042 0 161.86 71.221 161.86 158.237 0 87.038-72.818 158.235-161.86 158.235s-161.859-71.187-161.859-158.235c0-87.005 72.817-158.237 161.859-158.237zM203.146 339.907h621.119v83.705c0 118.294-202.161 180.144-310.616 180.144-108.387 0-310.504-61.851-310.504-180.155v-83.694zM142.647-60.948v178.733h23.652v-157.641h88.025v-21.092h-111.677zM275.416 26.1c0 29.667 7.965 52.873 23.897 69.616 15.93 16.825 36.495 25.237 61.691 25.237 16.499 0 31.374-3.942 44.623-11.826s23.327-18.898 30.234-33.041c6.992-14.062 10.487-30.032 10.487-47.914 0-18.125-3.658-34.34-10.974-48.646s-17.678-25.156-31.089-32.553c-13.412-7.315-27.878-10.973-43.403-10.973-16.826 0-31.862 4.064-45.111 12.192s-23.286 19.222-30.114 33.284c-6.828 14.062-10.241 28.936-10.241 44.622zM299.799 25.734c0-21.539 5.771-38.526 17.312-50.962 11.623-12.355 26.172-18.531 43.647-18.531 17.8 0 32.432 6.258 43.889 18.776 11.542 12.518 17.313 30.277 17.313 53.279 0 14.548-2.478 27.229-7.438 38.039-4.875 10.891-12.069 19.304-21.579 25.237-9.426 6.015-20.034 9.022-31.819 9.022-16.744 0-31.171-5.77-43.281-17.312-12.030-11.46-18.045-30.643-18.045-57.546zM560.583 9.154v20.971l75.712 0.122v-66.324c-11.623-9.266-23.611-16.256-35.965-20.971-12.357-4.633-25.034-6.949-38.041-6.949-17.557 0-33.527 3.739-47.913 11.217-14.307 7.559-25.116 18.45-32.432 32.674s-10.974 30.115-10.974 47.67c0 17.394 3.617 33.609 10.852 48.646 7.316 15.118 17.8 26.335 31.454 33.65s29.382 10.973 47.183 10.973c12.925 0 24.589-2.113 34.991-6.34 10.487-4.145 18.695-9.957 24.629-17.434s10.444-17.231 13.533-29.261l-21.336-5.852c-2.685 9.104-6.015 16.256-9.997 21.457s-9.672 9.347-17.069 12.436c-7.397 3.169-15.605 4.755-24.629 4.755-10.809 0-20.156-1.666-28.041-4.999-7.884-3.251-14.264-7.559-19.142-12.923-4.794-5.364-8.533-11.257-11.217-17.678-4.55-11.054-6.826-23.043-6.826-35.967 0-15.93 2.722-29.261 8.168-39.99 5.527-10.729 13.533-18.694 24.017-23.896 10.487-5.202 21.62-7.803 33.409-7.803 10.24 0 20.237 1.95 29.991 5.852 9.754 3.982 17.15 8.21 22.188 12.68v33.284h-52.548zM675.309-60.948v178.733h23.652v-178.733h-23.652zM740.537-60.948v178.733h24.261l93.877-140.329v140.329h22.678v-178.733h-24.264l-93.877 140.45v-140.45h-22.675z" />
            <glyph unicode="&#xe923;" glyph-name="google-plus"
                d="M1023.999 657.863h-162.796v-166.413h-64.472v166.413h-162.796v65.86h162.796v166.413h64.472v-166.413h162.796v-65.86zM444.064 381.167c-24.247 17.545-70.569 60.114-70.569 85.168 0 29.342 8.212 43.846 51.41 78.326 44.329 35.393 75.686 85.167 75.686 143.030 0 68.869-30.019 136.037-86.367 158.203h84.969l59.95 44.241h-267.97c-120.105 0-233.188-93.012-233.188-200.68 0-110.161 81.904-199.008 204.152-199.008 8.45 0 16.691 0.182 24.842 0.79-7.973-15.568-13.626-33.021-13.626-51.143 0-30.589 16.095-55.459 36.474-75.713-15.411 0-30.227-0.423-46.471-0.423-148.785 0-263.356-96.843-263.356-197.277 0-98.938 125.579-160.817 274.424-160.817 169.641 0 263.297 98.334 263.297 197.337 0 79.269-22.907 126.794-93.657 177.965zM300.858 518.299c-69.023 2.158-134.623 78.995-146.524 171.642-11.929 92.648 34.363 163.554 103.355 161.456 69.023-2.189 134.683-76.471 146.553-169.058 11.93-92.708-34.363-166.047-103.385-164.041zM273.845 49.568c-102.879 0-177.138 66.592-177.138 146.529 0 78.262 92.139 143.513 194.988 142.391 23.95-0.242 46.382-4.229 66.642-10.854 55.843-39.742 95.918-62.181 107.193-107.396 2.143-9.122 3.273-18.638 3.273-28.248 0-79.938-50.398-142.421-194.959-142.421z" />
            <glyph unicode="&#xe924;" glyph-name="gym"
                d="M19.692 467.692c-10.876 0-19.692-8.817-19.692-19.692s8.816-19.692 19.692-19.692h59.077v39.385h-59.077zM669.538 467.692h-315.077v-39.385h315.077v39.385zM1004.308 467.692h-59.077v-39.385h59.077c10.874 0 19.692 8.817 19.692 19.692s-8.818 19.692-19.692 19.692zM157.538 585.846v-39.385h-39.385c-21.769 0-39.385-17.632-39.385-39.385v-118.154c0-21.753 17.616-39.385 39.385-39.385h39.385v-39.385c0-21.753 17.616-39.385 39.385-39.385h118.154c21.769 0 39.385 17.632 39.385 39.385v275.692c0 21.753-17.616 39.385-39.385 39.385h-118.154c-21.769 0-39.385-17.632-39.385-39.385zM196.923 585.846h118.154v-275.692h-118.154v275.692zM157.538 507.077v-118.154h-39.385v118.154h39.385zM866.462 310.154v39.385h39.385c21.767 0 39.385 17.632 39.385 39.385v118.154c0 21.753-17.617 39.385-39.385 39.385h-39.385v39.385c0 21.753-17.617 39.385-39.385 39.385h-118.154c-21.767 0-39.385-17.632-39.385-39.385v-275.692c0-21.753 17.617-39.385 39.385-39.385h118.154c21.767 0 39.385 17.632 39.385 39.385zM708.923 585.846h118.154v-275.692h-118.154v275.692zM866.462 388.923v118.154h39.385v-118.154h-39.385z" />
            <glyph unicode="&#xe925;" glyph-name="room-check"
                d="M179.664 696.398v-675.716l-0.137-0.868c-0.366-2.331 0.556-17.58 19.281-35.928 18.369-18.001 34.677-24.081 39.771-25.161l352.758-0.083c5.176-0.636 24.081 1.152 42.229 18.937 17.983 17.62 19.9 37.015 19.225 42.64l-0.081 0.669v116.253h22.544v-114.974c1.222-12.548-3.157-38.392-25.909-60.688-22.566-22.116-47.703-26.505-59.989-25.297l-353.454 0.127c-9.804 1.477-30.973 10.017-52.872 31.476-21.821 21.383-27.245 42.915-25.909 54.521v674.204c0.28 43.887 13.955 109.421 54.37 164.294 40.823 55.427 108.412 99.196 214.352 99.196 105.464 0 168.783-38.433 205.153-92.064 35.827-52.829 44.261-118.616 44.261-171.498v-0.602l-0.063-0.602c-0.774-7.198-4.277-17.091-12.161-25.319-8.199-8.555-20.569-14.708-37.666-14.708-34.996 0-49.908 25.146-52.855 38.864l-0.252 1.17v1.197c0 28.232-4.892 64.079-25.118 92.626-19.717 27.826-55.384 50.63-121.298 50.63-66.136 0-101.916-21.779-121.614-48.955-20.193-27.859-25.12-63.578-24.803-94.184 0.433-41.612 8.188-77.915 29.323-103.75 20.746-25.357 56.206-42.775 117.094-42.775h164.125c11.854 0 40.81-3.946 59.379-22.143 17.749-17.392 24.526-40.626 25.819-50.776l0.090-0.71v-80.002h-22.544v78.503c-1.089 7.123-6.4 24.394-19.144 36.882-12.323 12.077-33.999 15.702-43.601 15.702h-164.125c-65.262 0-108.203 18.849-134.542 51.044-25.95 31.719-33.964 74.258-34.417 117.79-0.338 32.468 4.71 74.013 29.091 107.649 24.876 34.319 68.268 58.268 139.868 58.268 71.823 0 114.999-25.29 139.693-60.14 23.815-33.613 29.109-74.291 29.263-104.28 1.905-6.693 9.996-20.066 30.568-20.066 11.225 0 17.627 3.835 21.388 7.761 3.843 4.010 5.527 8.761 5.959 11.628-0.077 51.037-8.445 111.060-40.374 158.141-31.532 46.496-87.283 82.173-186.495 82.173-98.732 0-159.6-40.327-196.2-90.022-36.998-50.233-49.714-110.822-49.978-151.033zM443.241 328.024l-72.14-74.425 177.464-184.092 318.504 331.368-72.141 74.425-246.363-256.943-105.324 109.667zM795.015 442.818l-246.437-257.022-105.411 109.759-40.71-41.999 146.083-151.541 287.197 298.794-40.721 42.009z" />
            <glyph unicode="&#xe926;" glyph-name="room-choose"
                d="M197.534 742.548v-557.423l-0.113-0.716c-0.302-1.923 0.459-14.502 15.906-29.639 15.153-14.85 28.606-19.866 32.809-20.757h239.504v-18.598l-241.713 0.104c-8.088 1.218-25.551 8.262-43.616 25.966-18.001 17.64-22.476 35.402-21.373 44.976v556.176c0.231 36.204 11.513 90.266 44.852 135.533 33.676 45.724 89.433 81.83 176.827 81.83 87 0 139.235-31.704 169.238-75.947 29.555-43.581 36.512-97.851 36.512-141.475v-0.496l-0.052-0.496c-0.638-5.939-3.528-14.098-10.031-20.887-6.764-7.057-16.968-12.133-31.073-12.133-28.869 0-41.171 20.744-43.602 32.060l-0.208 0.965v0.988c0 23.289-4.036 52.861-20.721 76.411-16.266 22.956-45.689 41.767-100.063 41.767-54.557 0-84.075-17.966-100.324-40.385-16.658-22.981-20.723-52.448-20.46-77.696 0.357-34.327 6.754-64.274 24.189-85.587 17.114-20.919 46.366-35.286 96.595-35.286h135.393c9.779 0 33.665-3.255 48.984-18.266 14.641-14.347 20.232-33.515 21.3-41.887l0.074-0.586v-214.776h-18.598v213.539c-0.898 5.876-5.279 20.124-15.793 30.425-10.165 9.963-28.047 12.953-35.968 12.953h-135.393c-53.837 0-89.261 15.55-110.989 42.109-21.407 26.167-28.019 61.258-28.392 97.17-0.279 26.784 3.886 61.055 23.999 88.803 20.521 28.312 56.317 48.068 115.382 48.068 59.249 0 94.867-20.863 115.238-49.613 19.646-27.729 24.013-61.286 24.14-86.024 1.571-5.522 8.246-16.553 25.217-16.553 9.259 0 14.542 3.163 17.644 6.403 3.171 3.308 4.56 7.227 4.915 9.593-0.063 42.102-6.967 91.618-33.306 130.456-26.012 38.357-72.004 67.788-153.847 67.788-81.448 0-131.661-33.268-161.853-74.262-30.521-41.44-41.011-91.421-41.229-124.593zM437.857 311.203c-0.77-6.628 1.047-12.87 2.797-15.759l0.022-0.038 150.511-251.3c2.639-4.406 1.205-10.116-3.201-12.754s-10.116-1.207-12.754 3.199l-150.499 251.278c-3.987 6.597-6.57 17.004-5.351 27.515 1.272 10.956 6.792 22.656 19.698 30.108 15.487 8.94 28.947 8.996 39.822 4.188 9.71-4.566 16.805-12.791 20.248-17.532 0.19-0.26 0.364-0.532 0.526-0.811l98.384-170.406-16.102-9.308-98.146 169.995c-3.039 4.181-6.624 8.75-12.43 11.050-4.821 2.132-12.037 3.050-23.005-3.284-6.937-4.004-9.804-9.948-10.522-16.143zM590.015 154.234l-8.055-4.649c2.568-4.447 8.255-5.972 12.704-3.403 4.447 2.568 5.964 8.265 3.398 12.711l-8.047-4.659zM543.249 281.903c-2.46 4.508-0.801 10.158 3.705 12.618 10.442 5.702 21.677 6.587 32.46 1.605 10.271-4.747 19.023-14.3 26.438-27.139l45.723-79.199-16.1-9.306-45.731 79.207c-6.444 11.162-12.743 17.067-18.131 19.555-4.875 2.252-9.903 2.146-15.747-1.046-4.507-2.46-10.156-0.801-12.618 3.705zM605.789 298.553c-2.568 4.449-1.043 10.136 3.403 12.702 14.037 8.105 26.587 7.409 36.207 3.336 8.825-3.984 15.157-10.778 16.994-13.169 1.98-2.617 4.435-6.83 6.163-10 0.873-1.601 1.655-3.097 2.193-4.139 0.274-0.53 0.5-0.976 0.651-1.272l0.114-0.227 36.583-63.361-16.1-9.308-36.722 63.605c-0.095 0.164-0.186 0.331-0.27 0.5l-49.216 21.334zM655.005 277.22l-0.009 0.018-0.038 0.072-0.153 0.303c-0.139 0.276-0.333 0.656-0.584 1.144-0.512 0.992-1.198 2.301-1.997 3.768-1.614 2.968-3.318 5.955-4.595 7.589-1.417 1.861-4.247 5.382-9.481 7.35-4.437 1.878-10.846 2.771-19.657-2.316-4.447-2.568-10.134-1.043-12.702 3.403l49.216-21.334zM700.050 217.763l-8.053-4.648c2.566-4.449 8.253-5.973 12.702-3.405 4.447 2.568 5.966 8.265 3.398 12.713l-8.047-4.66zM678.298 300.065c-2.566 4.447-1.043 10.134 3.405 12.702 4.713 2.721 10.093 3.16 14.706 2.76 4.399-0.417 9.71-1.838 14.1-3.65 8.657-3.619 17.943-10.028 22.657-18.192 3.238-5.613 28.331-46.161 52.668-85.395 12.168-19.617 24.13-38.876 33.051-53.231l14.792-23.797c0 0 0.004-0.007-7.892-4.917l7.892 4.917c0.245-0.395 0.465-0.813 0.649-1.241 15.81-36.716 26.721-123.668-59.008-173.162-37.617-21.718-66.083-23.893-91.904-18.127-12.376 2.794-24.097 7.38-35.317 11.934-0.896 0.364-1.791 0.729-2.685 1.093-10.121 4.119-20.035 8.153-30.749 11.144-44.237 7.113-95.19-2.599-115.597-8.401-0.952-0.27-1.942-0.386-2.931-0.344-6.1 0.256-16.751 0.878-26.449 4.276-10.214 3.692-20.759 11.171-24.283 25.733-7.104 29.345 6.468 48.136 18.339 55.096 26.667 16.842 57.293 19.823 87.43 18.378 5.129-0.245 9.088-4.603 8.843-9.734-0.245-5.129-4.605-9.088-9.734-8.841-28.674 1.374-54.782-1.69-76.735-15.607-0.108-0.067-0.218-0.134-0.33-0.199-4.925-2.844-14.895-13.422-9.739-34.72 1.585-6.545 6.011-10.262 12.531-12.618 6.473-2.442 13.636-2.871 19.444-3.122 22.283 6.076 76.179 15.723 122.681 8.38 0.339-0.054 0.675-0.126 1.006-0.22 12.146-3.383 23.323-7.928 33.842-12.204 0.707-0.288 1.412-0.575 2.112-0.859 11.129-4.519 21.395-8.592 32.375-11.016 20.889-4.666 44.617-3.511 78.552 16.082 73.504 42.437 65.322 116.269 51.491 149.077l-14.423 23.202c-8.922 14.358-20.887 33.623-33.059 53.244-24.342 39.243-49.586 80.042-52.971 85.9-1.908 3.304-7.104 7.566-13.723 10.333-3.247 1.38-5.773 2.081-8.527 2.282-2.537 0.218-3.625-0.233-3.809-0.339-4.449-2.568-10.136-1.046-12.704 3.403zM648.178 177.077c-4.447-2.566-10.136-1.043-12.702 3.405l16.1 9.306c2.568-4.447 1.049-10.143-3.398-12.711z" />
            <glyph unicode="&#xe927;" glyph-name="help-bg"
                d="M512 960c-281.6 0-512-230.4-512-512s230.4-512 512-512 512 230.4 512 512-230.4 512-512 512zM568.32 243.2h-56.32v56.32h56.32v-56.32zM655.36 494.080c-10.24-15.36-25.6-30.72-46.080-56.32-15.36-15.36-25.6-25.6-30.72-30.72s-10.24-15.36-10.24-25.6-5.12-20.48-5.12-40.96h-46.080c0 5.12 0 10.24 0 15.36 0 20.48 5.12 35.84 10.24 51.2 5.12 10.24 10.24 20.48 20.48 30.72 5.12 10.24 20.48 20.48 35.84 35.84s30.72 25.6 35.84 35.84 10.24 20.48 10.24 30.72c0 20.48-5.12 35.84-20.48 51.2s-35.84 20.48-56.32 20.48c-20.48 0-40.96-5.12-51.2-20.48s-35.84-30.72-40.96-61.44l-51.2 5.12c5.12 40.96 20.48 66.56 40.96 87.040s51.2 30.72 92.16 30.72c40.96 0 71.68-10.24 92.16-30.72s35.84-46.080 35.84-76.8c0-20.48-5.12-35.84-15.36-51.2z" />
            <glyph unicode="&#xe928;" glyph-name="mail"
                d="M945.231 822.154h-866.462c-43.323 0-78.769-35.446-78.769-78.769v-590.77c0-43.323 35.446-78.769 78.769-78.769h866.462c43.323 0 78.769 35.446 78.769 78.769v590.77c0 43.323-35.446 78.769-78.769 78.769zM945.231 782.769c0 0 3.938 0 3.938 0l-437.17-330.831-456.862 322.954c7.877 3.938 15.754 7.877 23.631 7.877h866.462zM984.615 152.615c0-23.631-15.754-39.385-39.385-39.385h-866.462c-23.631 0-39.385 15.754-39.385 39.385v586.832l460.8-326.892c7.877-3.938 15.754-3.938 23.631 0l456.862 342.646c3.938-3.938 3.938-7.877 3.938-11.815v-590.77zM255.999 231.384h-118.154c-11.815 0-19.692-7.877-19.692-19.692s7.877-19.692 19.692-19.692h118.154c11.815 0 19.692 7.877 19.692 19.692s-7.877 19.692-19.692 19.692zM413.538 310.153h-275.692c-11.815 0-19.692-7.877-19.692-19.692s7.877-19.692 19.692-19.692h275.692c11.815 0 19.692 7.877 19.692 19.692s-7.877 19.692-19.692 19.692z" />
            <glyph unicode="&#xe929;" glyph-name="passbook"
                d="M1024 178.725v542.341c0 91.022-64.474 163.081-151.704 163.081h-720.593c-83.437 0-151.704-75.852-151.704-163.081v-546.133c0-91.022 64.474-163.081 151.704-163.081h720.593c83.437 0 151.704 75.852 151.704 166.874 0-3.793 0-3.793 0 0zM37.926 721.066c0 68.267 53.096 125.156 113.778 125.156h720.593c64.474 0 113.778-53.096 113.778-125.156v-64.474h-341.333v-18.963c0-15.17-7.585-30.341-22.756-37.926-18.963-11.378-41.719-18.963-68.267-18.963s-53.096 7.585-72.059 18.963c-18.963 11.378-26.548 26.548-26.548 37.926v18.963h-417.185v64.474zM37.926 618.666h383.052c7.585-22.756 22.756-41.719 41.719-53.096 26.548-15.17 56.889-22.756 91.022-22.756s64.474 7.585 87.23 26.548c18.963 11.378 34.133 30.341 37.926 53.096h307.2v-261.689l-79.644-49.304-87.23 53.096-87.23-53.096-87.23 53.096-87.23-53.096-87.23 53.096-87.23-53.096-87.23 53.096-87.23-53.096-91.022 53.096-79.644-56.889v310.993zM872.296 49.777h-720.593c-64.474 0-113.778 53.096-113.778 125.156v83.437l75.852 56.889 87.23-53.096 87.23 53.096 87.23-53.096 87.23 53.096 87.23-53.096 87.23 53.096 87.23-53.096 87.23 53.096 87.23-53.096 87.23 53.096v-140.326c0 0 0 0 0-3.793 0-68.267-53.096-121.363-113.778-121.363z" />
            <glyph unicode="&#xe92a;" glyph-name="gift"
                d="M408.714 489.314h-371.826v185.913h950.223v-185.913h-371.826zM408.714 452.426c20.373 0 36.887 16.516 36.887 36.887s-16.515 36.887-36.887 36.887v-73.775zM36.888 489.314h-36.887v-36.887h36.887v36.887zM36.888 675.227v36.887h-36.887v-36.887h36.887zM987.11 675.227h36.887v36.887h-36.887v-36.887zM987.11 489.314v-36.887h36.887v36.887h-36.887zM615.284 526.201c-20.373 0-36.887-16.516-36.887-36.887s16.515-36.887 36.887-36.887v73.775zM408.714 526.201h-371.826v-73.775h371.826v73.775zM73.776 489.314v185.913h-73.775v-185.913h73.775zM36.888 638.339h950.223v73.775h-950.223v-73.775zM950.223 675.227v-185.913h73.775v185.913h-73.775zM987.11 526.201h-371.826v-73.775h371.826v73.775zM371.828 489.314h36.887v36.887h-36.887v-36.887zM78.202 489.314v36.887h-36.887v-36.887h36.887zM78.202-27.111h-36.887v-36.887h36.887v36.887zM371.828-27.111v-36.887h36.887v36.887h-36.887zM445.603-27.111h-36.887v-36.887h36.887v36.887zM578.397-27.111v-36.887h36.887v36.887h-36.887zM445.603 489.314v36.887h-36.887v-36.887h36.887zM578.397 489.314h36.887v36.887h-36.887v-36.887zM652.172-27.111h-36.887v-36.887h36.887v36.887zM945.796-27.111v-36.887h36.887v36.887h-36.887zM945.796 489.314h36.887v36.887h-36.887v-36.887zM652.172 489.314v36.887h-36.887v-36.887h36.887zM371.828 526.201h-293.625v-73.775h293.625v73.775zM41.315 489.314v-516.425h73.775v516.425h-73.775zM78.202-64h293.625v73.775h-293.625v-73.775zM408.715-27.111v516.425h-73.775v-516.425h73.775zM445.603-64h132.794v73.775h-132.794v-73.775zM408.715 489.314v-516.425h73.774v516.425h-73.774zM578.397 526.201h-132.794v-73.775h132.794v73.775zM615.284-27.111v516.425h-73.775v-516.425h73.775zM652.172-64h293.625v73.775h-293.625v-73.775zM982.685-27.111v516.425h-73.775v-516.425h73.775zM945.796 526.201h-293.625v-73.775h293.625v73.775zM615.284 489.314v-516.425h73.775v516.425h-73.775zM511.999 658.996c20.373 0 36.887 16.516 36.887 36.887s-16.515 36.887-36.887 36.887v-73.775zM511.999 695.884c0 36.887 0 36.887-0.001 36.887s-0.001 0-0.003 0-0.005 0-0.010 0-0.022 0-0.040 0c-0.036 0-0.090 0-0.161 0-0.143 0-0.356 0-0.638 0-0.565 0-1.404 0-2.504 0-2.202 0-5.449 0-9.63 0-8.363 0-20.464 0-35.418 0-29.906 0-71.22 0-116.851 0v-73.775c45.631 0 86.945 0 116.851 0 14.953 0 27.055 0 35.418 0 4.181 0 7.429 0 9.63 0 1.1 0 1.94 0 2.504 0 0.282 0 0.495 0 0.638 0 0.072 0 0.125 0 0.161 0 0.018 0 0.031 0 0.040 0 0.005 0 0.008 0 0.010 0 0.001 0 0.002 0 0.003 0s0.001 0 0.001 36.887zM346.743 732.771c-40.497-0.359-76.171 9.708-105.917 31.323-27.421 19.344-43.108 45.144-43.108 76.389h-73.775c0-60.039 31.638-106.538 74.357-136.673 40.394-27.863 97.677-44.454 148.443-44.813v73.775zM197.718 840.483c0 13.75 3.395 24.723 9.283 31.715 4.874 5.788 15.752 14.025 43.047 14.025v73.775c-43.786 0-77.515-14.196-99.48-40.282-20.951-24.881-26.624-55.222-26.624-79.234h73.775zM250.048 886.223c47.531 0 74.184-35.462 109.012-95.286 16.334-28.051 33.992-59.525 55.354-83.998 23.062-26.057 54.323-47.945 97.584-47.945v73.775c-14.959 0-27.693 6.516-42.339 23.064-16.344 18.133-30.105 43.466-46.843 72.221-31.315 53.79-77.416 131.942-172.77 131.942v-73.775zM511.999 732.771c-20.373 0-36.887-16.516-36.887-36.887s16.516-36.887 36.887-36.887v73.775zM511.999 695.884c0-36.887 0-36.887 0.001-36.887s0.001 0 0.003 0 0.006 0 0.010 0 0.022 0 0.040 0c0.036 0 0.090 0 0.161 0 0.143 0 0.356 0 0.638 0 0.564 0 1.404 0 2.504 0 2.202 0 5.449 0 9.63 0 8.363 0 20.464 0 35.418 0 29.906 0 71.22 0 116.851 0v73.775c-45.631 0-86.945 0-116.851 0-14.953 0-27.054 0-35.418 0-4.182 0-7.429 0-9.63 0-1.1 0-1.941 0-2.504 0-0.282 0-0.495 0-0.638 0-0.072 0-0.125 0-0.161 0-0.018 0-0.031 0-0.040 0-0.004 0-0.008 0-0.010 0s-0.002 0-0.003 0-0.001 0-0.001-36.887zM677.255 658.996c50.766 0.359 108.049 16.95 148.443 44.813 42.719 30.135 74.357 76.635 74.357 136.673h-73.775c0-31.244-15.687-57.045-43.108-76.389-29.747-21.615-65.42-31.682-105.917-31.323v-73.775zM900.056 840.483c0 24.012-5.674 54.352-26.624 79.234-21.965 26.086-55.695 40.282-99.48 40.282v-73.775c27.295 0 38.174-8.238 43.047-14.025 5.887-6.992 9.283-17.966 9.283-31.715h73.775zM773.951 959.998c-95.353 0-141.454-78.152-172.77-131.942-16.738-28.755-30.499-54.089-46.843-72.221-14.646-16.548-27.38-23.064-42.339-23.064v-73.775c43.263 0 74.523 21.888 97.584 47.945 21.362 24.472 39.020 55.945 55.354 83.998 34.828 59.824 61.482 95.286 109.012 95.286v73.775z" />
            <glyph unicode="&#xe92b;" glyph-name="moon"
                d="M925.839 227.48c-36.865-23.393-77.902-41.68-122.372-53.595-232.845-62.39-471.579 73.539-533.226 303.605-19.368 72.284-18.952 145.261-2.049 213.296-134.303-100.395-201.385-274.491-155.794-444.642 59.981-223.85 292.262-356.104 518.816-295.399 144.139 38.621 251.23 146.044 294.625 276.735zM577.151 890.278c0-38.507-6.243-69.722-13.945-69.722s-13.945 31.216-13.945 69.722c0 38.507 6.243 69.722 13.945 69.722s13.945-31.216 13.945-69.722zM563.207 876.334c-38.507 0-69.722 6.243-69.722 13.945s31.216 13.945 69.722 13.945c38.507 0 69.722-6.243 69.722-13.945s-31.216-13.945-69.722-13.945zM660.818 583.499c0-38.507-6.243-69.722-13.945-69.722s-13.945 31.216-13.945 69.722c0 38.507 6.243 69.722 13.945 69.722s13.945-31.216 13.945-69.722zM646.874 569.555c-38.507 0-69.722 6.243-69.722 13.945s31.216 13.945 69.722 13.945c38.507 0 69.722-6.243 69.722-13.945s-31.216-13.945-69.722-13.945z" />
            <glyph unicode="&#xe92c;" glyph-name="ok"
                d="M512-54.464c282.767 0 512 224.963 512 502.465s-229.233 502.463-512 502.463c-282.77 0-512-224.96-512-502.463s229.23-502.465 512-502.465zM444.049 280.492l-170.987 168.949 47.787 47.613 123.2-121.335 259.096 256.496 47.785-47.613-306.881-304.109z" />
            <glyph unicode="&#xe92d;" glyph-name="help"
                d="M512 960c-281.6 0-512-230.4-512-512s230.4-512 512-512 512 230.4 512 512-230.4 512-512 512zM512-12.8c-256 0-460.8 204.8-460.8 460.8s204.8 460.8 460.8 460.8 460.8-204.8 460.8-460.8-204.8-460.8-460.8-460.8zM512 299.52h56.32v-56.32h-56.32v56.32zM542.72 652.8c-40.96 0-71.68-10.24-92.16-30.72s-35.84-46.080-40.96-87.040l51.2-5.12c5.12 25.6 15.36 51.2 25.6 61.44s30.72 20.48 51.2 20.48c20.48 0 40.96-5.12 56.32-20.48s20.48-30.72 20.48-51.2c0-10.24-5.12-20.48-10.24-30.72s-15.36-20.48-35.84-35.84c-15.36-15.36-30.72-25.6-35.84-35.84-10.24-10.24-15.36-20.48-20.48-30.72-5.12-15.36-10.24-30.72-10.24-51.2 0-5.12 0-10.24 0-15.36h61.44c0 20.48 0 35.84 5.12 40.96s5.12 15.36 10.24 25.6 15.36 15.36 30.72 30.72c25.6 20.48 40.96 40.96 46.080 56.32s10.24 30.72 10.24 51.2c0 30.72-10.24 56.32-35.84 76.8s-51.2 30.72-87.040 30.72z" />
            <glyph unicode="&#xe92e;" glyph-name="speed" horiz-adv-x="585"
                d="M88.052 948.896c-14.065 14.496-37.218 14.845-51.714 0.779s-14.845-37.218-0.779-51.714l52.493 50.935zM523.121 448l26.247-25.468c13.765 14.19 13.765 36.747 0 50.937l-26.247-25.468zM35.559-1.96c-14.065-14.497-13.717-37.65 0.779-51.716s37.649-13.714 51.714 0.779l-52.493 50.937zM35.559 897.961l461.315-475.429 52.495 50.937-461.316 475.428-52.493-50.935zM496.874 473.468l-461.315-475.429 52.493-50.937 461.316 475.429-52.495 50.937z" />
            <glyph unicode="&#xe92f;" glyph-name="hotel"
                d="M827.922 6.642h-640.182c-21.32 0-36.792 14.66-36.792 34.882v410.363l-74.99-65.46-75.958 82.365 500.848 420.566h21.318l501.834-421.382-85.119-80.78-74.133 64.692v-410.348c0-20.236-15.473-34.882-36.824-34.882v-0.015zM187.74 531.359v-489.821h640.231v489.821l109.828-95.807 32.576 30.884-458.854 385.257-459.822-386.070 27.037-29.303 109.004 95.038zM380.956 183.167v348.377h48.648v-143.058h190.939v143.058h48.663v-348.407h-48.663v164.262h-190.909v-164.262h-48.645z" />
            <glyph unicode="&#xe930;" glyph-name="share"
                d="M1023.998 223.419v516.655c0 13.964-9.309 23.272-23.272 23.272s-23.272-9.309-23.272-23.272v-516.655c0 0 0 0 0 0 0-69.818-55.855-125.673-116.364-125.673h-698.182c-65.163 0-116.364 51.2-116.364 125.673v516.655c0 13.964-9.309 23.272-23.272 23.272s-23.272-9.309-23.272-23.272v-516.655c0-97.746 65.163-172.218 162.909-172.218h698.182c93.091 0 162.909 79.127 162.909 172.218 0 0 0 0 0 0zM367.707 614.4l144.291 148.945v-456.146c0-13.964 9.309-23.272 23.272-23.272s23.272 9.309 23.272 23.272v456.146l144.291-144.291c9.309-9.309 23.272-9.309 32.582 0s9.309 23.272 0 32.582l-186.182 186.182c-9.309 9.309-23.272 9.309-32.582 0l-186.182-186.182c-4.655-9.309-4.655-27.927 0-37.236 9.309-4.655 27.927-4.655 37.236 0z" />
            <glyph unicode="&#xe931;" glyph-name="print"
                d="M787.691 704.001h-39.384v118.154h-472.615v-118.154h-39.384c-129.969 0-236.308-106.339-236.308-236.308s106.339-236.308 236.308-236.308v-157.539h551.384v157.539c129.969 0 236.308 106.339 236.308 236.308s-106.339 236.308-236.308 236.308zM315.076 782.77h393.846v-78.769h-393.846v78.769zM748.306 113.232h-472.615v196.923h472.615v-196.923zM787.691 270.77v39.384h39.384v39.384h-630.154v-39.384h39.384v-39.384c-110.277 0-196.923 86.646-196.923 196.923s86.646 196.923 196.923 196.923h551.384c110.277 0 196.923-86.646 196.923-196.923s-86.646-196.923-196.923-196.923zM244.183 451.94c0-15.226-12.343-27.569-27.569-27.569s-27.569 12.343-27.569 27.569c0 15.226 12.343 27.569 27.569 27.569s27.569-12.343 27.569-27.569zM370.214 451.94c0-15.226-12.343-27.569-27.569-27.569s-27.569 12.343-27.569 27.569c0 15.226 12.343 27.569 27.569 27.569s27.569-12.343 27.569-27.569z" />
            <glyph unicode="&#xe932;" glyph-name="ko"
                d="M1024 448.024c0-277.5-229.228-502.498-512-502.498-282.775 0-512 224.998-512 502.498s229.225 502.45 512 502.45c282.772 0 512-224.95 512-502.45zM392.538 280.522l127.997 125.604 128-125.604 48.276 47.35-128 125.652 130.924 128.5-48.271 47.35-130.929-128.5-130.922 128.5-48.275-47.35 130.925-128.5-128-125.652 48.275-47.35z" />
            <glyph unicode="&#xe933;" glyph-name="input-clear"
                d="M512-64c-283.106 0-512 228.894-512 512s228.894 512 512 512c283.106 0 512-228.894 512-512s-228.894-512-512-512zM512 939.922c-271.059 0-491.922-220.863-491.922-491.922s220.863-491.922 491.922-491.922 491.922 220.863 491.922 491.922-220.863 491.922-491.922 491.922zM707.925 658.128l14.197-14.197-407.467-407.467-14.197 14.197 407.467 407.467zM316.075 658.128l407.467-407.467-14.197-14.197-407.467 407.467 14.197 14.197z" />
            <glyph unicode="&#xe934;" glyph-name="leaf"
                d="M179.123 246.599c-1.876-18.758 11.81-35.484 30.568-37.36s35.484 11.81 37.36 30.568l-67.928 6.793zM964.021 891.736l33.116 8.279c-3.802 15.195-17.456 25.855-33.116 25.855v-34.133zM281.354 140.803l6.694 33.471c-8.081 1.618-16.474 0.253-23.629-3.837l16.935-29.635zM42.421 4.27l-16.935 29.635c-16.047-9.168-21.881-29.443-13.16-45.739s28.828-22.692 45.359-14.425l-15.265 30.529zM720.792 533.826c9.156 16.479 3.217 37.259-13.261 46.415s-37.259 3.217-46.415-13.261l59.676-33.153zM247.051 239.807c10.674 106.744 80.888 308.909 229.105 457.127l-48.271 48.271c-160.455-160.455-236.681-377.794-248.762-498.606l67.928-6.793zM476.156 696.934c143.83 143.83 352.15 160.669 487.864 160.669v68.267c-137.353 0-371.294-15.822-536.136-180.664l48.271-48.271zM930.905 883.458c16.493-65.456 24.603-169.722 7.885-281.12-16.473-111.196-57.201-222.629-135.441-300.866l48.278-48.271c92.426 92.43 137.032 219.93 154.692 339.134 17.415 119.002 8.458 236.603-9.182 307.68l-66.232-16.557zM803.348 301.472c-200.18-200.182-401.64-149.931-515.3-127.198l-13.388-66.942c113.895-22.781 349.437-81.661 576.967 145.869l-48.278 48.271zM264.419 170.438l-238.933-136.533 33.87-59.269 238.933 136.533-33.87 59.269zM57.686-26.259c80.657 40.346 211.429 117.118 338.29 214.207 126.454 96.849 253.156 216.89 324.816 345.879l-59.676 33.153c-64.873-116.771-182.794-229.975-306.65-324.838-123.45-94.635-248.678-168.049-327.31-207.343l30.53-61.058z" />
            <glyph unicode="&#xe935;" glyph-name="poi"
                d="M512 960c-211.744 0-384-172.608-384-384.704 0-317.664 358.432-622.688 373.696-635.52 2.976-2.528 6.656-3.776 10.304-3.776s7.232 1.216 10.176 3.648c15.264 12.608 373.824 312.384 373.824 635.648 0 212.096-172.256 384.704-384 384.704v0zM512.064-26.816c-58.912 52.64-352.064 328.288-352.064 602.112 0 194.496 157.92 352.704 352 352.704s352-158.208 352-352.704c0-278.464-292.864-550.176-351.936-602.112zM512 768c-105.888 0-192-86.112-192-192s86.112-192 192-192c105.888 0 192 86.112 192 192s-86.112 192-192 192zM512 416c-88.224 0-160 71.776-160 160s71.776 160 160 160c88.224 0 160-71.776 160-160s-71.776-160-160-160z" />
            <glyph unicode="&#xe936;" glyph-name="lift-small"
                d="M804.57 594.286c0 20.199-16.375 36.571-36.571 36.571s-36.571-16.373-36.571-36.571h73.143zM767.999 155.43l-25.86-25.86c14.281-14.283 37.438-14.283 51.719 0l-25.86 25.86zM1013.287 348.998c14.283 14.281 14.283 37.438 0 51.719s-37.438 14.283-51.719 0l51.719-51.719zM574.432 400.719c-14.281 14.283-37.438 14.283-51.719 0s-14.281-37.438 0-51.719l51.719 51.719zM731.428 594.286v-438.856h73.143v438.856h-73.143zM793.86 129.57l219.428 219.428-51.719 51.719-219.428-219.428 51.719-51.719zM793.86 181.291l-219.428 219.428-51.719-51.719 219.428-219.428 51.719 51.719zM219.43 301.716c0-20.199 16.375-36.571 36.571-36.571s36.571 16.373 36.571 36.571h-73.143zM256.001 740.571l25.86 25.86c-14.281 14.283-37.438 14.283-51.719 0l25.86-25.86zM10.713 547.004c-14.283-14.281-14.283-37.438 0-51.719s37.438-14.283 51.719 0l-51.719 51.719zM449.568 495.283c14.281-14.283 37.438-14.283 51.719 0s14.281 37.438 0 51.719l-51.719-51.719zM292.572 301.716v438.856h-73.143v-438.856h73.143zM230.14 766.432l-219.428-219.428 51.719-51.719 219.428 219.428-51.719 51.719zM230.14 714.711l219.428-219.428 51.719 51.719-219.428 219.428-51.719-51.719z" />
            <glyph unicode="&#xe937;" glyph-name="lift"
                d="M302.724 483.377c32.672 0 59.164 24.367 59.164 54.419 0 30.054-26.491 54.421-59.164 54.421-32.677 0-59.164-24.366-59.164-54.421 0-30.052 26.487-54.419 59.164-54.419zM239.433 471.368c-41.898 0-75.593-31.433-75.593-70.632v-167.084c0-32.485 51.686-32.485 51.686 0v152.781h12.236v-418.338c0-43.43 68.827-42.152 68.827 0v242.839h11.854v-242.839c0-42.152 69.206-43.43 69.206 0v418.338h11.949v-152.781c0-32.735 51.418-32.735 51.324 0v166.085c0 36.147-30.519 71.553-76.522 71.553l-124.967 0.078zM712.323 483.377c32.673 0 59.167 24.367 59.167 54.419 0 30.054-26.493 54.421-59.167 54.421-32.678 0-59.163-24.366-59.163-54.421 0-30.052 26.485-54.419 59.163-54.419zM649.032 471.368c-41.898 0-75.592-31.433-75.592-70.632v-167.084c0-32.485 51.688-32.485 51.688 0v152.781h12.234v-418.338c0-43.43 68.826-42.152 68.826 0v242.839h11.858v-242.839c0-42.152 69.202-43.43 69.202 0v418.338h11.953v-152.781c0-32.735 51.418-32.735 51.323 0v166.085c0 36.147-30.519 71.553-76.521 71.553l-124.969 0.078zM716.8 960c11.309 0 20.48-9.169 20.48-20.48v-155.356l87.917 87.918c8 7.999 20.968 7.999 28.966 0 7.995-7.997 7.995-20.965 0-28.963l-122.88-122.88c-8-7.999-20.968-7.999-28.966 0l-122.88 122.88c-7.996 7.997-7.996 20.965 0 28.963 8 7.999 20.968 7.999 28.966 0l87.917-87.918v155.356c0 11.311 9.171 20.48 20.48 20.48zM307.2 714.24c-11.31 0-20.48 9.17-20.48 20.48v155.356l-87.918-87.918c-7.997-7.999-20.965-7.999-28.963 0s-7.997 20.965 0 28.963l122.88 122.88c7.997 7.997 20.965 7.997 28.963 0l122.88-122.88c7.999-7.997 7.999-20.965 0-28.963s-20.965-7.999-28.963 0l-87.918 87.918v-155.356c0-11.31-9.17-20.48-20.48-20.48z" />
            <glyph unicode="&#xe938;" glyph-name="minus" d="M0 512h1024v-128h-1024v128z" />
            <glyph unicode="&#xe939;" glyph-name="plus"
                d="M1024 512v-128h-448v-448h-128v448h-448v128h448v448h128v-448h448z" />
            <glyph unicode="&#xe93a;" glyph-name="info"
                d="M512 960c-276.078 0-501.961-230.903-501.961-512s225.883-512 501.961-512c276.078 0 501.961 230.903 501.961 512s-225.883 512-501.961 512zM562.196 252.235h-50.196v286.118h50.196v-286.118zM562.196 593.569h-50.196v55.215h50.196v-55.215z" />
            <glyph unicode="&#xe93b;" glyph-name="stairs-duplex"
                d="M642.683 785.538c0 24.629 19.966 44.595 44.595 44.595h292.128c24.634 0 44.595-19.966 44.595-44.595s-19.96-44.595-44.595-44.595h-247.533v-263.983c0-24.629-19.965-44.595-44.595-44.595h-305.96v-321.903c0-24.629-19.966-44.595-44.595-44.595h-292.129c-24.629 0-44.595 19.966-44.595 44.595s19.966 44.595 44.595 44.595h247.534v321.903c0 24.629 19.966 44.595 44.595 44.595h305.96v263.983z" />
            <glyph unicode="&#xe93c;" glyph-name="lock"
                d="M768.722 561.246h-44.66v188.212c0 114.841-95.701 210.542-210.542 210.542s-210.542-95.701-210.542-210.542v-188.212h-51.040c-54.231 0-95.701-44.66-95.701-95.701v-290.293c0-133.981 108.461-239.252 239.252-239.252h216.922c140.361 0 255.202 114.841 255.202 255.202v271.153c3.19 54.231-44.66 98.891-98.891 98.891zM366.778 749.458c0 79.751 66.991 146.741 146.741 146.741s146.741-63.801 146.741-146.741v-188.212h-293.483v188.212zM807.002 188.013c0-105.271-86.131-191.402-191.402-191.402h-216.922c-98.891 0-175.452 79.751-175.452 175.452v290.293c0 19.14 15.95 31.9 31.9 31.9h516.785c19.14 0 35.090-15.95 35.090-35.090v-271.153zM513.519 427.265c-38.28 0-66.991-28.71-66.991-66.991v-114.841c0-38.28 28.71-66.991 66.991-66.991s66.991 28.71 66.991 66.991v114.841c0 38.28-28.71 66.991-66.991 66.991z" />
            <glyph unicode="&#xe93d;" glyph-name="unlocked"
                d="M765.608 561.246h-47.85v188.212c0 114.841-95.701 210.542-210.542 210.542s-210.542-95.701-210.542-210.542v-44.66h63.801v44.66c0 79.751 66.991 146.741 146.741 146.741s146.741-66.991 146.741-146.741v-188.212h-401.944c-54.231 0-95.701-44.66-95.701-95.701v-290.293c0-133.981 108.461-239.252 239.252-239.252h216.922c140.361 0 255.202 114.841 255.202 255.202v271.153c0 54.231-44.66 98.891-102.081 98.891zM612.487-3.389h-216.922c-98.891 0-175.452 79.751-175.452 175.452v290.293c0 19.14 15.95 31.9 31.9 31.9h513.595c19.14 0 35.090-15.95 35.090-35.090v-274.343c3.19-105.271-82.941-188.212-188.212-188.212zM510.406 424.075c-38.28 0-66.991-28.71-66.991-66.991v-114.841c0-38.28 28.71-66.991 66.991-66.991s66.991 28.71 66.991 66.991v114.841c3.19 38.28-28.71 66.991-66.991 66.991z" />
            <glyph unicode="&#xe93e;" glyph-name="like"
                d="M1023.998 597.56c0 143.618-123.422 260.040-275.693 260.040-100.303 0-188.067-50.531-236.299-126.070-48.231 75.538-136.010 126.070-236.313 126.070-152.271 0-275.693-116.422-275.693-260.040 0-74.73 33.483-142.057 87.006-189.487h-0.073l394.7-356.241c7.24-8.204 18.099-13.432 30.271-13.432 11.275 0 21.427 4.51 28.609 11.713l396.496 357.961c53.53 47.423 86.991 114.75 86.991 189.487z" />
            <glyph unicode="&#xe93f;" glyph-name="check"
                d="M366.399 64l-366.4 368.908 102.4 103.965 264-264.943 555.2 560.070 102.4-103.965-657.6-664.035z" />
            <glyph unicode="&#xe940;" glyph-name="youtube-2"
                d="M628 249.143v-120.571c0-25.714-7.429-38.286-22.286-38.286-8.571 0-17.143 4-25.714 12.571v172c8.571 8.571 17.143 12.571 25.714 12.571 14.857 0 22.286-13.143 22.286-38.286zM821.143 248.571v-26.286h-51.429v26.286c0 25.714 8.571 38.857 25.714 38.857s25.714-13.143 25.714-38.857zM269.143 373.143h61.143v53.714h-178.286v-53.714h60v-325.143h57.143v325.143zM433.714 48h50.857v282.286h-50.857v-216c-11.429-16-22.286-24-32.571-24-6.857 0-10.857 4-12 12-0.571 1.714-0.571 8-0.571 20v208h-50.857v-223.429c0-20 1.714-33.143 4.571-41.714 4.571-14.286 16.571-21.143 33.143-21.143 18.286 0 37.714 11.429 58.286 34.857v-30.857zM678.857 132.571v112.571c0 26.286-1.143 45.143-5.143 56.571-6.286 21.143-20.571 32-40.571 32-18.857 0-36.571-10.286-53.143-30.857v124h-50.857v-378.857h50.857v27.429c17.143-21.143 34.857-31.429 53.143-31.429 20 0 34.286 10.857 40.571 31.429 4 12 5.143 30.857 5.143 57.143zM872 138.286v7.429h-52c0-20.571-0.571-32-1.143-34.857-2.857-13.714-10.286-20.571-22.857-20.571-17.714 0-26.286 13.143-26.286 39.429v49.714h102.286v58.857c0 30.286-5.143 52-15.429 66.286-14.857 19.429-34.857 29.143-60.571 29.143-26.286 0-46.286-9.714-61.143-29.143-10.857-14.286-16-36-16-66.286v-98.857c0-30.286 5.714-52.571 16.571-66.286 14.857-19.429 34.857-29.143 61.714-29.143s48 10.286 61.714 30.286c6.286 9.143 10.857 19.429 12 30.857 1.143 5.143 1.143 16.571 1.143 33.143zM524.572 660v120c0 26.286-7.429 39.429-24.571 39.429-16.571 0-24.571-13.143-24.571-39.429v-120c0-26.286 8-40 24.571-40 17.143 0 24.571 13.714 24.571 40zM935.429 230.857c0-65.714-0.571-136-14.857-200-10.857-45.143-47.429-78.286-91.429-82.857-105.143-12-211.429-12-317.143-12s-212 0-317.143 12c-44 4.571-81.143 37.714-91.429 82.857-14.857 64-14.857 134.286-14.857 200v0c0 66.286 0.571 136 14.857 200 10.857 45.143 47.429 78.286 92 83.429 104.571 11.429 210.857 11.429 316.571 11.429s212 0 317.143-11.429c44-5.143 81.143-38.286 91.429-83.429 14.857-64 14.857-133.714 14.857-200zM365.143 960h58.286l-69.143-228v-154.857h-57.143v154.857c-5.143 28-16.571 68-34.857 121.143-12.571 35.429-25.143 71.429-37.143 106.857h60.571l40.571-150.286zM576.572 769.714v-100c0-30.286-5.143-53.143-16-67.429-14.286-19.429-34.286-29.143-60.571-29.143-25.714 0-45.714 9.714-60 29.143-10.857 14.857-16 37.143-16 67.429v100c0 30.286 5.143 52.571 16 66.857 14.286 19.429 34.286 29.143 60 29.143 26.286 0 46.286-9.714 60.571-29.143 10.857-14.286 16-36.571 16-66.857zM768 862.286v-285.143h-52v31.429c-20.571-24-40-35.429-58.857-35.429-16.571 0-28.571 6.857-33.714 21.143-2.857 8.571-4.571 22.286-4.571 42.857v225.143h52v-209.714c0-12 0-18.857 0.571-20 1.143-8 5.143-12.571 12-12.571 10.286 0 21.143 8 32.571 24.571v217.714h52z" />
            <glyph unicode="&#xe941;" glyph-name="instagram"
                d="M512 960c-139.093 0-156.459-0.64-211.072-3.072-54.528-2.56-91.648-11.136-124.288-23.808-33.664-13.056-62.251-30.592-90.709-59.051s-46.037-57.003-59.051-90.709c-12.672-32.64-21.291-69.76-23.808-124.288-2.56-54.613-3.072-71.979-3.072-211.072s0.64-156.459 3.072-211.072c2.56-54.485 11.136-91.648 23.808-124.288 13.056-33.621 30.592-62.251 59.051-90.709 28.459-28.416 57.003-46.037 90.709-59.051 32.683-12.629 69.803-21.291 124.288-23.808 54.613-2.56 71.979-3.072 211.072-3.072s156.459 0.64 211.072 3.072c54.485 2.56 91.648 11.179 124.288 23.808 33.621 13.056 62.251 30.635 90.709 59.051 28.416 28.459 46.037 56.96 59.051 90.709 12.629 32.64 21.291 69.803 23.808 124.288 2.56 54.613 3.072 71.979 3.072 211.072s-0.64 156.459-3.072 211.072c-2.56 54.485-11.179 91.691-23.808 124.288-13.056 33.664-30.635 62.251-59.051 90.709-28.459 28.459-56.96 46.037-90.709 59.051-32.64 12.672-69.803 21.291-124.288 23.808-54.613 2.56-71.979 3.072-211.072 3.072zM512 867.84c136.661 0 152.96-0.683 206.933-3.029 49.92-2.347 77.013-10.624 95.019-17.707 23.979-9.259 40.96-20.352 58.965-38.229 17.877-17.92 28.971-34.944 38.229-58.923 6.997-18.005 15.36-45.099 17.621-95.019 2.432-54.016 2.987-70.229 2.987-206.933s-0.64-152.96-3.157-206.933c-2.603-49.92-10.923-77.013-17.963-95.019-9.557-23.979-20.437-40.96-38.357-58.965-17.877-17.877-35.157-28.971-58.88-38.229-17.92-6.997-45.44-15.36-95.36-17.621-54.357-2.432-70.357-2.987-207.317-2.987-137.003 0-153.003 0.64-207.317 3.157-49.963 2.603-77.483 10.923-95.403 17.963-24.277 9.557-40.96 20.437-58.837 38.357-17.963 17.877-29.44 35.157-38.4 58.88-7.040 17.92-15.317 45.44-17.92 95.36-1.92 53.76-2.603 70.357-2.603 206.677 0 136.363 0.683 153.003 2.603 207.403 2.603 49.92 10.88 77.397 17.92 95.317 8.96 24.32 20.437 40.96 38.4 58.923 17.877 17.877 34.56 29.397 58.837 38.315 17.92 7.083 44.843 15.403 94.763 17.963 54.4 1.92 70.4 2.56 207.317 2.56l1.92-1.28zM512 710.912c-145.28 0-262.912-117.76-262.912-262.912 0-145.28 117.76-262.912 262.912-262.912 145.28 0 262.912 117.76 262.912 262.912 0 145.28-117.76 262.912-262.912 262.912zM512 277.333c-94.293 0-170.667 76.373-170.667 170.667s76.373 170.667 170.667 170.667 170.667-76.373 170.667-170.667-76.373-170.667-170.667-170.667zM846.763 721.28c0-33.92-27.563-61.44-61.44-61.44-33.92 0-61.44 27.563-61.44 61.44s27.563 61.397 61.44 61.397c33.835 0.043 61.44-27.52 61.44-61.397z" />
            <glyph unicode="&#xe942;" glyph-name="chevron"
                d="M157.085 704l-52.362 52.361-104.723-104.723 52.362-52.362 104.723 104.724zM512.001 244.361l-52.362-52.362 52.362-52.362 52.362 52.362-52.362 52.362zM971.64 599.277l52.361 52.362-104.722 104.723-52.361-52.361 104.722-104.724zM52.362 599.277l407.277-407.277 104.724 104.723-407.278 407.278-104.723-104.724zM564.363 191.999l407.277 407.277-104.722 104.724-407.278-407.278 104.724-104.723z" />
            <glyph unicode="&#xe943;" glyph-name="youtube"
                d="M1002.439 695.232c-12.365 43.307-45.781 76.722-88.183 88.866l-0.905 0.222c-79.787 21.376-400.896 21.376-400.896 21.376s-320.299 0.427-400.896-21.376c-43.307-12.365-76.722-45.781-88.866-88.183l-0.222-0.905c-14.173-72.978-22.281-156.904-22.281-242.723 0-1.743 0.003-3.484 0.010-5.225l-0.001 0.268c-0.004-1.198-0.006-2.617-0.006-4.035 0-85.813 8.107-169.732 23.598-251.033l-1.32 8.327c12.365-43.307 45.781-76.722 88.183-88.866l0.905-0.222c79.701-21.419 400.896-21.419 400.896-21.419s320.256 0 400.896 21.419c43.307 12.365 76.722 45.781 88.866 88.183l0.222 0.905c13.59 71.472 21.364 153.686 21.364 237.715 0 3.173-0.011 6.344-0.033 9.513l0.003-0.486c0.024 2.951 0.037 6.439 0.037 9.929 0 84.041-7.776 166.267-22.648 245.996l1.278-8.245zM409.97 294.336v306.901l267.264-153.685z" />
            <glyph unicode="&#xe944;" glyph-name="linkedin-2"
                d="M872.405 87.381h-151.637v237.611c0 56.661-1.152 129.579-79.019 129.579-79.061 0-91.136-61.653-91.136-125.397v-241.792h-151.637v488.619h145.664v-66.603h1.963c20.352 38.4 69.845 78.933 143.787 78.933 153.643 0 182.059-101.12 182.059-232.747v-268.203zM227.712 642.859c-48.811 0-88.021 39.509-88.021 88.107 0 48.555 39.253 88.021 88.021 88.021 48.64 0 88.064-39.467 88.064-88.021 0-48.597-39.467-88.107-88.064-88.107zM303.744 87.381h-152.064v488.619h152.064v-488.619zM948.267 960h-872.704c-41.771 0-75.563-33.024-75.563-73.771v-876.459c0-40.789 33.792-73.771 75.563-73.771h872.576c41.728 0 75.861 32.981 75.861 73.771v876.459c0 40.747-34.133 73.771-75.861 73.771h0.128z" />
            <glyph unicode="&#xe945;" glyph-name="fullscreen"
                d="M146.287 301.714h-146.285v-365.714h365.714v146.285h-219.429v219.429zM0 594.284h146.285v219.429h219.429v146.285h-365.714v-365.714zM877.715 82.285h-219.429v-146.285h365.714v365.714h-146.285v-219.429zM658.286 960v-146.285h219.429v-219.429h146.285v365.714h-365.714z" />
            <glyph unicode="&#xe946;" glyph-name="wordpress"
                d="M916.011 668.8c35.84-65.579 56.235-140.8 56.235-220.8 0-169.771-91.989-318.123-228.821-397.867l140.587 406.485c26.24 65.707 34.987 118.229 34.987 164.864 0 17.28-1.109 33.28-2.987 47.36zM575.488 664.363c27.605 1.28 52.565 4.48 52.565 4.48 24.832 3.2 21.931 39.68-2.859 38.357 0 0-74.88-5.76-122.88-5.76-45.397 0-121.6 6.4-121.6 6.4-24.96 1.28-28.203-36.48-3.2-37.76 0 0 23.040-2.603 48-3.84l71.68-196.48-101.12-302.080-167.637 497.92c27.691 1.28 52.651 4.267 52.651 4.267 24.96 3.2 22.016 39.68-2.773 38.229 0 0-74.496-5.888-122.624-5.888-8.533 0-18.688 0.341-29.44 0.64 83.285 122.752 225.109 205.312 385.749 205.312 119.851 0 228.907-45.739 310.869-120.875-1.963 0.128-3.883 0.384-6.016 0.384-45.227 0-77.312-39.381-77.312-81.664 0-37.973 21.888-70.101 45.227-107.989 17.536-30.72 37.973-70.101 37.973-127.019 0-39.040-15.104-85.077-35.029-148.437l-45.867-152.96-166.4 495.36 0.043-0.597zM512-12.117c-45.184 0-88.789 6.528-130.048 18.645l138.112 401.323 141.44-387.712c1.024-2.261 2.133-4.309 3.328-6.357-47.787-16.768-99.2-25.984-152.832-25.984zM51.669 448c0 66.731 14.336 130.133 39.893 187.307l219.477-601.557c-153.429 74.624-259.328 232.021-259.371 414.251zM512 960c-282.24 0-512-229.76-512-512s229.76-512 512-512 512 229.76 512 512-229.76 512-512 512z" />
            <glyph unicode="&#xe947;" glyph-name="play-circle-outline"
                d="M409.6 217.6l307.2 230.4-307.2 230.4v-460.8zM512 960c-282.624 0-512-229.376-512-512s229.376-512 512-512 512 229.376 512 512-229.376 512-512 512zM512 38.401c-225.792 0-409.599 183.807-409.599 409.599s183.807 409.599 409.599 409.599 409.599-183.807 409.599-409.599-183.807-409.599-409.599-409.599z" />
            <glyph unicode="&#xe948;" glyph-name="publish"
                d="M960.001-64v128h-896v-128h896zM960.001 576h-256.001v384h-384v-384h-256.001l448.001-448.001 448.001 448.001z" />
            <glyph unicode="&#xe949;" glyph-name="share-social"
                d="M820.433 236.208c-39.069 0-74.024-15.422-100.755-39.582l-366.522 213.334c2.57 11.823 4.627 23.647 4.627 35.984s-2.057 24.16-4.627 35.984l362.41 211.277c27.759-25.702 64.257-41.639 104.867-41.639 85.334 0 154.217 68.883 154.217 154.217s-68.883 154.217-154.217 154.217-154.217-68.883-154.217-154.217c0-12.337 2.057-24.16 4.627-35.984l-362.41-211.277c-27.759 25.702-64.257 41.639-104.867 41.639-85.334 0-154.217-68.883-154.217-154.217s68.883-154.217 154.217-154.217c40.611 0 77.108 15.936 104.867 41.639l366.008-213.847c-2.57-10.795-4.112-22.105-4.112-33.413 0-82.763 67.341-150.105 150.105-150.105s150.105 67.341 150.105 150.105-67.341 150.105-150.105 150.105z" />
            <glyph unicode="&#xe94a;" glyph-name="car"
                d="M1004.41 401.095c0 18.697-6.237 37.395-12.467 56.092 0 6.233 0 6.234 0 12.467l-87.262 211.921c-31.163 87.262-74.794 168.293-180.755 168.293h-417.616c-112.197 6.233-149.598-81.027-180.76-162.059l-87.262-211.926c-12.465-18.698-18.699-43.626-18.699-68.56v-68.56c0-12.467 0-18.704 6.234-31.163 0-6.237-6.234-12.467-6.234-18.704v-193.222c0-31.163 24.932-49.858 49.863-49.858h105.963c31.163 0 49.863 24.925 49.863 49.858v99.729h567.202v-99.729c0-31.163 24.934-49.858 49.858-49.858h99.729c31.163 0 49.858 24.925 49.858 49.858v193.222c0 6.237 0 12.467-6.23 18.704 0 12.46 6.23 18.697 6.23 31.163v62.326h12.467zM194.108 662.876c31.163 93.496 62.326 124.665 118.431 124.665h411.383c56.092 0 87.262-31.163 118.43-124.665l62.326-124.665c-18.697 6.233-43.624 12.465-68.56 12.465h-648.234c-18.698 0-43.629-6.234-62.327-12.465l68.56 124.665zM243.978 313.831h-112.197c-18.698 0-37.397 18.697-37.397 37.392s18.698 37.4 37.397 37.4h112.197c18.698 0 37.397-18.704 37.397-37.4s-18.698-37.392-37.397-37.392zM649.13 320.064h-268.018c-12.465 0-24.931 12.467-24.931 24.934s12.465 24.934 24.931 24.934h268.018c12.467 0 24.925-12.467 24.925-24.934s-12.46-24.934-24.925-24.934zM885.98 313.831h-112.197c-18.697 0-37.4 18.697-37.4 37.392s18.704 37.4 37.4 37.4h112.197c18.704 0 37.392-18.704 37.392-37.4s-12.46-37.392-37.392-37.392z" />
            <glyph unicode="&#xe94b;" glyph-name="transport"
                d="M795.029-64h95.406l-171.725 257.612c31.797 6.438 57.242 19.318 82.681 45.078 19.082 25.765 31.802 51.525 31.802 90.165v495.9c0 38.642-12.72 70.843-38.164 96.604-25.44 25.761-57.242 38.641-95.401 38.641h-375.255c-38.161 0-69.962-12.88-95.403-38.641s-38.162-57.962-38.162-96.604v-495.9c0-32.203 12.721-64.401 31.801-90.165 19.081-25.76 50.882-38.64 82.683-45.078l-171.727-257.612h95.404l19.081 25.76h534.261l12.72-25.76zM737.787 277.336c-12.72-12.88-25.44-19.322-44.522-19.322-19.078 0-31.802 6.442-44.522 19.322s-19.078 25.76-19.078 45.078c0 19.322 6.358 32.203 19.078 45.083s25.444 19.322 44.522 19.322c19.082 0 31.802-6.442 44.522-19.322s19.082-25.76 19.082-45.083c0-19.318-6.362-32.198-19.082-45.078zM273.491 811.875c0 19.321 6.36 32.201 19.081 45.081s25.441 19.321 44.522 19.321h356.173c19.082 0 31.802-6.441 44.522-19.321s19.082-25.761 19.082-45.081v-161.007c0-19.321-6.362-32.201-19.082-45.082s-25.44-19.321-44.522-19.321h-356.173c-19.081 0-31.801 6.441-44.522 19.321s-19.081 32.202-19.081 45.082v161.007zM286.211 277.336c-12.72 12.88-19.081 25.76-19.081 45.078 0 19.322 6.36 32.203 19.081 45.083s25.441 19.322 44.522 19.322c19.081 0 31.801-6.442 44.522-19.322s19.081-25.76 19.081-45.083c0-19.318-6.36-32.198-19.081-45.078s-25.441-19.322-44.522-19.322c-19.081 0-31.801 6.442-44.522 19.322zM298.932 45.484l44.522 64.405h337.092l44.522-64.405h-426.136z" />
            <glyph unicode="&#xe94c;" glyph-name="walking"
                d="M331.629 674.911c-64 0-116.363-116.363-116.363-267.634 0-209.456 40.727-267.635 104.727-267.635s139.637 93.092 139.637 302.544c0 151.272-64 232.726-128 232.726zM337.465 128.001h-5.818c-40.728 0-75.637-29.090-75.637-69.818v-52.365c0-40.728 34.909-69.818 75.637-69.818h5.818c40.727 0 75.637 29.090 75.637 69.818v52.365c0 40.728-34.909 69.818-75.637 69.818zM692.369 960c-63.999 0-127.999-81.454-127.999-226.909 0-209.452 75.638-302.544 139.637-302.544s104.727 58.184 104.727 267.635c0 145.454-52.361 261.817-116.363 261.817zM698.159 413.090h-5.819c-40.724 0-75.632-29.090-75.632-69.818v-52.361c0-40.728 34.909-69.821 75.632-69.821h5.819c40.728 0 75.637 29.094 75.637 69.821v52.361c0 40.728-34.909 69.818-75.637 69.818z" />
            <glyph unicode="&#xe94d;" glyph-name="guide"
                d="M66.784 637.216c36.896 0 66.784 29.888 66.784 66.784s-29.888 66.784-66.784 66.784c-36.896 0-66.784-29.888-66.784-66.784s29.888-66.784 66.784-66.784zM276.221 673.889v60.224h747.779v-60.224h-747.779zM66.784 125.216c36.896 0 66.784 29.888 66.784 66.784s-29.888 66.784-66.784 66.784c-36.896 0-66.784-29.888-66.784-66.784s29.888-66.784 66.784-66.784zM276.221 161.888v60.224h747.779v-60.224h-747.779zM66.784 381.216c36.896 0 66.784 29.888 66.784 66.784s-29.888 66.783-66.784 66.783-66.784-29.888-66.784-66.783c0-36.896 29.888-66.784 66.784-66.784zM276.221 417.888v60.224h747.779v-60.224h-747.779z" />
            <glyph unicode="&#xe94e;" glyph-name="map"
                d="M672 768l-320 128-352-128v-768l352 128 320-128 352 128v768l-352-128zM384 814.27l256-102.4v-630.138l-256 102.398v630.14zM64 723.172l256 93.090v-631.8l-256-93.088v631.798zM960 172.828l-256-93.092v631.8l256 93.090v-631.798z" />
            <glyph unicode="&#xe94f;" glyph-name="circle"
                d="M1024 448c0-282.667-229.333-512-512-512s-512 229.333-512 512 229.333 512 512 512 512-229.333 512-512z" />
            <glyph unicode="&#xe950;" glyph-name="not-found"
                d="M969.962 188.288c0-139.502-113.554-252.288-250.408-252.288-136.85 0-250.408 115.756-250.408 252.288 0 139.502 113.558 252.292 250.408 252.292 139.765 0 250.408-115.756 250.408-252.292zM908.818 188.288c0 103.885-84.44 189.959-189.264 189.959-101.91 0-189.261-83.105-189.261-189.959 0-106.851 84.44-189.959 189.261-189.959 104.825 0 189.264 86.078 189.264 189.959zM803.997 280.305c-14.559 14.841-32.029 14.841-43.677 0l-43.677-44.522-43.674 44.522c-14.559 14.841-32.029 14.841-43.677 0-14.559-14.841-14.559-32.651 0-44.522l43.677-44.522-40.766-41.552c-14.559-14.841-14.559-32.651 0-44.522 14.559-14.841 32.029-14.841 43.677 0l43.674 44.522 43.677-44.522c14.559-14.841 32.029-14.841 43.677 0 14.559 14.841 14.559 32.647 0 44.522l-43.677 44.522 43.677 44.522c11.644 8.901 11.648 26.712-2.911 41.552zM387.61 615.699c0-94.98 49.499-175.119 125.206-222.607-20.381-20.78-34.94-41.556-49.499-65.302-5.138 3.335-10.178 6.795-15.115 10.379l-336.223-337.020-77.671 77.488 336.407 337.203c-40.988 56.795-64.632 126.032-64.632 199.86 0 186.991 151.412 344.301 340.673 344.301 189.264 0 340.674-157.31 340.674-344.301 0-83.109-26.207-157.309-72.792-213.706-20.385 20.776-43.677 35.617-66.97 47.492 37.851 47.488 58.233 103.885 58.233 166.214 0 145.438-116.469 261.194-259.145 261.194s-259.145-115.757-259.145-261.194zM509.89 707.718l-20.381 17.809c37.851 50.458 96.088 80.139 157.235 80.139 23.292 0 46.585-5.936 66.97-14.841l-8.737-23.745c-20.381 8.904-37.851 11.873-58.233 11.873-52.414-2.968-104.825-29.681-136.854-71.235z" />
            <glyph unicode="&#xe951;" glyph-name="user-line"
                d="M737.28 714.24c0-109.505-98.296-204.8-225.28-204.8s-225.28 95.31-225.28 204.8c0 109.551 98.289 204.8 225.28 204.8 126.988 0 225.28-95.264 225.28-204.8zM512 468.48c146.465 0 266.24 110.613 266.24 245.76 0 135.181-119.775 245.76-266.24 245.76s-266.24-110.563-266.24-245.76c0-135.13 119.776-245.76 266.24-245.76zM983.040 65.942v-88.982h-942.080v88.965c0 32.395 14.405 63.091 43.194 92.553 29.153 29.835 71.372 56.476 121.43 78.729 100.323 44.597 222.621 67.432 306.327 67.432 83.759 0 206.107-22.839 306.463-67.432 50.074-22.254 92.303-48.89 121.467-78.725 28.795-29.463 43.201-60.154 43.201-92.541zM0-64h1024v129.942c0 183.64-333.292 279.658-512.090 279.658-178.693 0-511.91-96.018-511.91-279.675v-129.925z" />
            <glyph unicode="&#xe952;" glyph-name="user-bg"
                d="M777.535 697.026c0-142.744-119.45-259.577-265.519-259.577-146.067 0-265.52 116.851-265.52 259.577 0 142.798 119.452 259.575 265.52 259.575 146.070 0 265.519-116.795 265.519-259.575zM1021.452-60.6v137.308c0 194.058-331.633 295.516-509.544 295.516-177.803 0-509.361-101.458-509.361-295.532v-137.293h1018.906z" />
            <glyph unicode="&#xe953;" glyph-name="clear"
                d="M512 960c-284.444 0-512-227.556-512-512s227.556-512 512-512 512 227.556 512 512-227.556 512-512 512zM512-7.111c-250.311 0-455.111 204.8-455.111 455.111s204.8 455.111 455.111 455.111 455.111-204.8 455.111-455.111-204.8-455.111-455.111-455.111zM694.044 675.556l-182.044-182.044-182.044 182.044-45.511-45.511 182.044-182.044-182.044-182.044 45.511-45.511 182.044 182.044 182.044-182.044 45.511 45.511-182.044 182.044 182.044 182.044z" />
            <glyph unicode="&#xe954;" glyph-name="close"
                d="M512.001 305.899l-365.715-365.718-137.92 137.923 365.714 365.715-374.080 374.080 137.92 137.92 374.080-374.081 374.077 374.081 137.923-137.92-374.080-374.080 365.718-365.715-137.923-137.923-365.715 365.718z" />
            </font>
</defs>
</svg>
